.
Авторизация | Регистрация
» » Киборг / Cyborg (1989) BDRip-AVC от 0ptimus | P, P2, A торрент скачать бесплатно




    Киборг / Cyborg (1989) BDRip-AVC от 0ptimus | P, P2, A торрент скачать бесплатно

    Опубликовал: Админ | Дата: 27-02-2015, 11:09 | Просмотров: 297



    Детально о кино
    Русское название: Киборг
    Русское название в мировом прокате: Cyborg
    Создали в: 1989
    Категория жанра: Фантастика, боевик
    Главный режиссер: Альберт Пьюн
    Актеры: Жан-Клод Ван Дамм, Дебора Рихтер, Винсент Клин, Алекс Дэниелс, Дэйл Хэддон, Блэйз Лунг, Ральф Мёллер, Хейли Петерсон, Джексон Скала Пинкни, Джэнис Грейсер

    Сюжет фильма:
    Мрачное будущее… Соединенные Штаты Америки лежат в руинах. Анархия, голод, геноцид… Следом пришла тихая смерть — неведомая чума стирает население всей планеты. Выжившие ученые в Атланте подобрались вплотную к открытию противоядия. Но им катастрофически не хватает данных. То, что им необходимо есть в Нью-Йорке, но туда нет пути. Весь мир между крохотными клочками цивилизации превратился в отравленную пустыню, населенную лютыми сворами отморозков. Выжить в ней может только существо с рефлексами хищника, молниеносной реакцией и отточенными как меч самурая навыками боя!



    Снималось в: США
    Киностудия: Cannon Entertainment, Golan, Globus Production
    Время просмотра: 01:26:24
    Перевод текста: Профессиональный многоголосый, авторский одноголосый

    Файл
    Кодек для видео: h264
    Качество фильма: BDRip-AVC
    Информация о видео: MPEG-4 AVC, 3100 Кбит/с, 1024x552, 23.976 кадр/с

    Информация о звуке:
    • №1: Русский (AC3, 2 ch, 192 Кбит/с) Профессиональный многоголосый R5
    • №2: Русский (AC3, 2 ch, 192 Кбит/с) Профессиональный двухголосый ТВ-6
    • №3: Русский (AC3, 2 ch, 192 Кбит/с) Авторский одноголосый Андрей Гаврилов
    • №4: Английский (AC3, 2 ch, 192 Кбит/с)
    Отдельно:
    • №5: Русский (AC3, 2 ch, 192 Кбит/с) Профессиональный многоголосый РТР
    • №6: Русский (AC3, 2 ch, 192 Кбит/с) Авторский одноголосый Вартан Дохалов
    • №7: Русский (AC3, 2 ch, 192 Кбит/с) Авторский одноголосый Леонид Володарский
    • №8: Украинский (AC3, 2 ch, 192 Кбит/с) Профессиональный многоголосый 1 1

    Субтитры: Русские (форсированные), русские (полные), английские

    MediaInfo

    ---------------------------------------------------------------------------
    x264 info: frame I:983 Avg QP:17.02 size: 94706
    x264 info: frame P:28948 Avg QP:18.87 size: 33422
    x264 info: frame B:94366 Avg QP:19.99 size: 10027
    ---------------------------------------------------------------------------

    Полное имя : Kiborg.1989.x264.BDRip.(AVC).0ptimus.mkv
    Формат : Matroska
    Версия формата : Version 4 / Version 2
    Размер файла : 2,33 Гбайт
    Продолжительность : 1 ч. 26 м.
    Общий поток : 3867 Кбит/сек
    Название фильма : Киборг | Cyborg 1989 -=BDRip (AVC) by 0ptimus=-
    Дата кодирования : UTC 2013-12-13 13:54:54
    Программа кодирования : mkvmerge v6.6.0 (;The Edge Of The In Between;) built on Dec 1 2013 17:55:00
    Библиотека кодирования : libebml v1.3.0 libmatroska v1.4.1

    Видео
    Идентификатор : 1
    Формат : AVC
    Формат/Информация : Advanced Video Codec
    Профиль формата : High@L4.1
    Параметр CABAC формата : Да
    Параметр ReFrames формата : 10 кадров
    Идентификатор кодека : V_MPEG4/ISO/AVC
    Продолжительность : 1 ч. 26 м.
    Битрейт : 3100 Кбит/сек
    Ширина : 1024 пикселя
    Высота : 552 пикселя
    Соотношение сторон : 1,855
    Частота кадров : 23,976 кадра/сек
    Цветовое пространство : YUV
    Субдискретизация насыщенности : 4:2:0
    Битовая глубина : 8 бит
    Тип развёртки : Прогрессивная
    Бит/(Пиксели*Кадры) : 0.229
    Размер потока : 1,82 Гбайт (78%)
    Заголовок : Rip by 0ptimus
    Библиотека кодирования : x264 core 125 r2208 d9d2288
    Настройки программы : cabac=1 / ref=10 / deblock=1:-3:-3 / analyse=0x3:0x113 / me=umh / subme=11 / psy=1 / psy_rd=1.00:0.20 / mixed_ref=1 / me_range=32 / chroma_me=1 / trellis=2 / 8x8dct=1 / cqm=0 / deadzone=21,11 / fast_pskip=0 / chroma_qp_offset=-3 / threads=4 / lookahead_threads=1 / sliced_threads=0 / nr=0 / decimate=0 / interlaced=0 / bluray_compat=0 / constrained_intra=0 / bframes=12 / b_pyramid=2 / b_adapt=2 / b_bias=0 / direct=3 / weightb=1 / open_gop=0 / weightp=2 / keyint=240 / keyint_min=23 / scenecut=40 / intra_refresh=0 / rc_lookahead=40 / rc=2pass / mbtree=0 / bitrate=3100 / ratetol=1.0 / qcomp=0.60 / qpmin=0 / qpmax=69 / qpstep=4 / cplxblur=20.0 / qblur=0.5 / vbv_maxrate=50000 / vbv_bufsize=50000 / nal_hrd=none / ip_ratio=1.40 / pb_ratio=1.30 / aq=1:1.00
    Язык : English

    Аудио #1
    Идентификатор : 2
    Формат : AC-3
    Формат/Информация : Audio Coding 3
    Расширение режима : CM (complete main)
    Идентификатор кодека : A_AC3
    Продолжительность : 1 ч. 26 м.
    Вид битрейта : Постоянный
    Битрейт : 192 Кбит/сек
    Каналы : 2 канала
    Расположение каналов : Front: L R
    Частота : 48,0 КГц
    Битовая глубина : 16 бит
    Метод сжатия : С потерями
    Размер потока : 119 Мбайт (5%)
    Заголовок : Многоголосый закадровый R5 AC3 2.0 @ 192 kbps
    Язык : Russian

    Аудио #2
    Идентификатор : 3
    Формат : AC-3
    Формат/Информация : Audio Coding 3
    Расширение режима : CM (complete main)
    Идентификатор кодека : A_AC3
    Продолжительность : 1 ч. 26 м.
    Вид битрейта : Постоянный
    Битрейт : 192 Кбит/сек
    Каналы : 2 канала
    Расположение каналов : Front: L R
    Частота : 48,0 КГц
    Битовая глубина : 16 бит
    Метод сжатия : С потерями
    Размер потока : 119 Мбайт (5%)
    Заголовок : Двухголосый закадровый ТВ-6 AC3 2.0 @ 192 kbps
    Язык : Russian

    Аудио #3
    Идентификатор : 4
    Формат : AC-3
    Формат/Информация : Audio Coding 3
    Расширение режима : CM (complete main)
    Идентификатор кодека : A_AC3
    Продолжительность : 1 ч. 26 м.
    Вид битрейта : Постоянный
    Битрейт : 192 Кбит/сек
    Каналы : 2 канала
    Расположение каналов : Front: L R
    Частота : 48,0 КГц
    Битовая глубина : 16 бит
    Метод сжатия : С потерями
    Размер потока : 119 Мбайт (5%)
    Заголовок : Авторский Андрей Гаврилов AC3 2.0 @ 192 kbps

    Аудио #4
    Идентификатор : 5
    Формат : AC-3
    Формат/Информация : Audio Coding 3
    Расширение режима : CM (complete main)
    Идентификатор кодека : A_AC3
    Продолжительность : 1 ч. 26 м.
    Вид битрейта : Постоянный
    Битрейт : 192 Кбит/сек
    Каналы : 2 канала
    Расположение каналов : Front: L R
    Частота : 48,0 КГц
    Битовая глубина : 16 бит
    Метод сжатия : С потерями
    Размер потока : 119 Мбайт (5%)
    Заголовок : AC3 2.0 @ 192 kbps
    Язык : English

    Текст #1
    Идентификатор : 6
    Формат : UTF-8
    Идентификатор кодека : S_TEXT/UTF8
    Идентификатор кодека/Информация : UTF-8 Plain Text
    Заголовок : Форсированные
    Язык : Russian

    Текст #2
    Идентификатор : 7
    Формат : UTF-8
    Идентификатор кодека : S_TEXT/UTF8
    Идентификатор кодека/Информация : UTF-8 Plain Text
    Заголовок : Полные
    Язык : Russian

    Текст #3
    Идентификатор : 8
    Формат : UTF-8
    Идентификатор кодека : S_TEXT/UTF8
    Идентификатор кодека/Информация : UTF-8 Plain Text
    Язык : English

    Меню
    00:00:00.000 : :Opening Logos
    00:00:25.192 : :The Collapse Of Civilization
    00:04:14.087 : :Opening Credits
    00:05:24.699 : :Pearl: Atlanta Or Bust...Or Both!
    00:10:31.881 : :The Horrors Of My Mind
    00:16:20.479 : :Two For The Road
    00:23:38.167 : :The Pirates Of Menace
    00:28:52.814 : :Fender;s Boat Will Pass Here
    00:32:34.077 : :The Legend Of Pearl Prophet
    00:36:01.076 : :Hot On Fender;s Trail
    00:40:01.482 : :Face To Face With The Enemy
    00:46:34.917 : :Down In The Depths
    00:49:52.364 : :The Killing Fields
    00:55:11.725 : :Face-To-Fist Combat
    00:56:38.103 : :Crucified
    00:59:36.615 : :Flashbacks/Freedom
    01:05:58.037 : :Welcome To Atlanta
    01:09:25.036 : :Good Versus Evil
    01:12:41.566 : :The Final Countdown!
    01:19:29.723 : :While You Were Out-Cold
    01:22:11.802 : :End Credits
    Скриншоты для ознакомления






    Релиз подготовил:
    Размер скачиваемого торрента: 2.80 GB (3003809082 Bytes)

    Киборг / Cyborg (1989) BDRip-AVC от 0ptimus | P, P2, A торрент скачать бесплатно
    загрузка...
    Рейтинг →
     (голосов: 1, оценка 3/5, голосовать можно 1 раз )

    Другие торренты по теме:

  • Киборг / Kiborg - Дискография (2001-2011) MP3 торрент скачать бесплатно
  • 009 король: Киборг / 009 Re: Cyborg (2012) BDRip 720p | LE-Production Anilibria скачать через торрент бесплатно
  • Киборг-охотник 2 / Cyber-Tracker 2 (1995) DVDRip скачать через торрент бесплатно
  • Киборг / Cyborg (1989) HDRip от Scarabey | Р торрент скачать бесплатно
  • Киборг / Cyborg (1989) BDRip от HQCLUB торрент скачать бесплатно
  • 009 король: Киборг / 009 Re: Cyborg (2012) BDRip 1080p от Ash61 | 3D-Video | halfOU | L торрент скачать бесплатно
  • Киборг-полицейский / Cyborg Cop (1993) DVDRip скачать через торрент бесплатно
  • Киборг-полицейский 2 / Cyborg Cop II (1994) DVDRip торрент скачать бесплатно


    • Комментарии (0):

      Информация

      Информация

        Посетители, находящиеся в группе Гости, не могут оставлять комментарии в данной новости.

        ↓ Меню



        ↓ Опрос

        А Вы добавили сайт в закладки?
        Да
        Не


        Top 10 за неделю (Фильмы)