.
Авторизация | Регистрация
Хочешь лучшие торренты? Добавь свой email!
Добавить
» » Дом 3: Шоу ужасов / The Horror Show (1989) BDRip 720p от MediaClub | A торрент скачать бесплатно




    Дом 3: Шоу ужасов / The Horror Show (1989) BDRip 720p от MediaClub | A торрент скачать бесплатно

    Опубликовал: Админ | Дата: 27-02-2015, 11:09 | Просмотров: 259



    Детально о кино
    Русское название: Дом 3: Шоу ужасов
    Русское название в мировом прокате: The Horror Show
    Создали в: 1989
    Категория жанра: Ужасы
    Главный режиссер: Джеймс Исаак, Дэвид Блит
    Актеры: Лэнс Хенриксен, Брайон Джеймс, Рита Таггарт, Диди Пфайффер, Арон Эйзенберг, Том Брэй, Мэтт Кларк, Дэвид Оливер, Терри Александр, Льюис Аркетт

    Сюжет фильма:
    Убийца мистическим образом оживает и мстит семье полицейского, арестовавшего его. Их сны превращаются в жуткие кошмары…



    Снималось в: США, Sean S. Cunningham Films
    Время просмотра: 01:34:22
    Перевод текста: Авторский одноголосый (Визгунов)

    Файл
    Кодек для видео: x264
    Качество фильма: BDRip 720p
    Информация о видео: MPEG-4 AVC, 5200 Кбит/с, 1280x694, 23.976 кадр/с
    Информация о звуке: Русский (AC3, 2 ch, 192 Кбит/с), английский (DTS, 2 ch, 1510 Кбит/с)
    Субтитры: Английские

    Семпл

    MI
    x264 info: frame I:817 Avg QP:15.54 size: 94232
    x264 info: frame P:27440 Avg QP:17.72 size: 46834
    x264 info: frame B:107475 Avg QP:19.39 size: 21530

    Format : Matroska
    Format version : Version 4 / Version 2
    File size : 4.55 GiB
    Duration : 1h 34mn
    Overall bit rate : 6 898 Kbps
    Movie name : -=MediaClub - Odessit=-
    Encoded date : UTC 2013-12-13 04:05:35
    Writing application : mkvmerge v6.1.0 (;Old Devil;) built on Mar 4 2013 09:10:42
    Writing library : libebml v1.3.0 libmatroska v1.4.0

    Video
    ID : 1
    Format : AVC
    Format/Info : Advanced Video Codec
    Format profile : High@L4.1
    Format settings, CABAC : Yes
    Format settings, ReFrames : 9 frames
    Codec ID : V_MPEG4/ISO/AVC
    Duration : 1h 34mn
    Bit rate : 5 200 Kbps
    Width : 1 280 pixels
    Height : 694 pixels
    Display aspect ratio : 16:9
    Frame rate : 23.976 fps
    Color space : YUV
    Chroma subsampling : 4:2:0
    Bit depth : 8 bits
    Scan type : Progressive
    Bits/(Pixel*Frame) : 0.244
    Stream size : 3.33 GiB (73%)
    Writing library : x264 core 130 r2273 b3065e6
    Encoding settings : cabac=1 / ref=9 / deblock=1:-3:-3 / analyse=0x3:0x133 / me=umh / subme=11 / psy=1 / psy_rd=1.00:0.20 / mixed_ref=1 / me_range=48 / chroma_me=1 / trellis=2 / 8x8dct=1 / cqm=0 / deadzone=21,11 / fast_pskip=0 / chroma_qp_offset=-3 / threads=6 / lookahead_threads=1 / sliced_threads=0 / nr=0 / decimate=0 / interlaced=0 / bluray_compat=0 / constrained_intra=0 / bframes=10 / b_pyramid=2 / b_adapt=2 / b_bias=0 / direct=3 / weightb=1 / open_gop=0 / weightp=2 / keyint=240 / keyint_min=23 / scenecut=40 / intra_refresh=0 / rc=2pass / mbtree=0 / bitrate=5200 / ratetol=1.0 / qcomp=0.60 / qpmin=0 / qpmax=69 / qpstep=4 / cplxblur=20.0 / qblur=0.5 / ip_ratio=1.40 / pb_ratio=1.30 / aq=1:1.00
    Language : English

    Audio #1
    ID : 2
    Format : AC-3
    Format/Info : Audio Coding 3
    Mode extension : CM (complete main)
    Codec ID : A_AC3
    Duration : 1h 34mn
    Bit rate mode : Constant
    Bit rate : 192 Kbps
    Channel(s) : 2 channels
    Channel positions : Front: L R
    Sampling rate : 48.0 KHz
    Bit depth : 16 bits
    Compression mode : Lossy
    Stream size : 130 MiB (3%)
    Title : Авторский одноголосый (Визгунов)
    Language : Russian

    Audio #2
    ID : 3
    Format : DTS
    Format/Info : Digital Theater Systems
    Codec ID : A_DTS
    Duration : 1h 34mn
    Bit rate mode : Constant
    Bit rate : 1 510 Kbps
    Channel(s) : 2 channels
    Channel positions : Front: L R
    Sampling rate : 48.0 KHz
    Bit depth : 24 bits
    Compression mode : Lossy
    Stream size : 1 019 MiB (22%)
    Language : English

    Text
    ID : 4
    Format : UTF-8
    Codec ID : S_TEXT/UTF8
    Codec ID/Info : UTF-8 Plain Text
    Language : English

    Menu
    00:00:00.000 : :Chapter 01
    00:02:43.163 : :Chapter 02
    00:13:57.419 : :Chapter 03
    00:22:35.854 : :Chapter 04
    00:30:55.937 : :Chapter 05
    00:40:40.062 : :Chapter 06
    00:51:49.815 : :Chapter 07
    00:59:46.874 : :Chapter 08
    01:12:28.302 : :Chapter 09
    01:19:20.714 : :Chapter 10
    01:31:02.290 : :Chapter 11

    О релизе
    • За исходный диск спасибо (BitHQ)
    • За постер спасибо: Media-Art-Club
    • Синхронизация звука kaspr

    Скриншоты для ознакомления


    Релиз подготовил: |
    Размер скачиваемого торрента: 4.55 GB (4881845129 Bytes)

    Дом 3: Шоу ужасов / The Horror Show (1989) BDRip 720p от MediaClub | A торрент скачать бесплатно
    загрузка...
    Рейтинг →
     (голосов: 1, оценка 4/5, голосовать можно 1 раз )

    Другие торренты по теме:

  • Дом 3: Шоу ужасов / The Horror Show (1989) DVDRip | A1
  • Дом 3: Шоу ужасов / The Horror Show (1989) HDRip от MediaClub | A скачать через торрент бесплатно
  • Дом 3: Шоу ужасов / The Horror Show (1989) Blu-Ray Remux 1080p от MediaClub | A скачать через торрент бесплатно
  • Дом 3: Шоу ужасов / House III: The Horror Show (1989) DVDRip | P2, A скачать через торрент бесплатно
  • Ночь Демонов 3: Дом Демонов / Night of the Demons 3: Demon House (1997) DVDRip от olegek70 | A
  • Дом с привидениями / La casa 3 / Ghosthouse (1988) DVDRip от Bathory | P, A
  • Дом у дороги (Придорожное заведение, Придорожная закусочная) / Road House / 1989 / ПМ, 2 x ПД, 3 x АП, СТ / DVD-9


    • Комментарии (0):

      Информация

      Информация

        Посетители, находящиеся в группе Гости, не могут оставлять комментарии в данной новости.

        ↓ Меню



        ↓ Опрос

        А Вы добавили сайт в закладки?
        Да
        Не


        Top 10 за месяц (Фильмы)