.
Авторизация | Регистрация
» » Ромео и Джульетта / Romeo and Juliet (2013) WEB-DLRip скачать через торрент бесплатно




    Ромео и Джульетта / Romeo and Juliet (2013) WEB-DLRip скачать через торрент бесплатно

    Опубликовал: Админ | Дата: 27-02-2015, 11:09 | Просмотров: 274



    Детально о кино
    Русское название: Ромео и Джульетта
    Русское название в мировом прокате: Romeo and Juliet
    Создали в: 2013
    Категория жанра: драма, мелодрама
    Главный режиссер: Карло Карлей
    Актеры: Дуглас Бут, Хейли Стайнфелд, Дэмиэн Льюис, Коди Смит-МакФи, Эд Вествик, Пол Джаматти, Томас Арана, Наташа МакЭлхоун, Стеллан Скарсгард, Лесли Мэнвилл

    Сюжет фильма:
    Верона. Эпоха Раннего Возрождения. Юноша и девушка из враждующих семей влюбляются друг в друга. Рок не дает им быть вместе. Лишь смерть на пике запретной страсти помогает Ромео и Джульетте спасти свою любовь.




    Снималось в: Великобритания, Италия, Швейцария
    Киностудия: Amber Entertainment, Echo Lake Productions (I), Indiana Production Company
    Время просмотра: 01:53:25
    Перевод текста: Дублированное iTunes

    Файл
    Кодек для видео: XviD
    Качество фильма: WEB-DLRip (Исх. WEB-DL 720p)
    Информация о видео: 656x272 (2.41:1), 25 fps, XviD build 50 ~782 kbps avg, 0.18 bit/pixel
    Информация о звуке: 48 kHz, MPEG Layer 3, 2 ch, ~128.00 kbps avg
    Субтитры: нет

    Семпл

    MediaInfo

    Общее
    Полное имя : S:ФильмыРомео и Джульетта. 2013. WEB-DLRip.avi
    Формат : AVI
    Формат/Информация : Audio Video Interleave
    Размер файла : 746 Мбайт
    Продолжительность : 1 ч. 53 м.
    Общий поток : 919 Кбит/сек
    Программа кодирования : VirtualDubMod 1.5.10.3 | www.virtualdub-fr.org || (build 2550/release)
    Библиотека кодирования : VirtualDubMod build 2550/release

    Видео
    Идентификатор : 0
    Формат : MPEG-4 Visual
    Профиль формата : Advanced Simple@L5
    Параметр BVOP формата : 2
    Параметр QPel формата : Нет
    Параметр GMC формата : Без точки перехода
    Параметр матрицы формата : Выборочная
    Идентификатор кодека : XVID
    Идентификатор кодека/Подсказка : XviD
    Продолжительность : 1 ч. 53 м.
    Битрейт : 782 Кбит/сек
    Ширина : 656 пикс.
    Высота : 272 пикс.
    Соотношение сторон : 2,40:1
    Частота кадров : 25,000 кадр/сек
    Цветовое пространство : YUV
    Подвыборка цветности : 4:2:0
    Битовая глубина : 8 бит
    Тип развёртки : Прогрессивная
    Метод сжатия : С потерями
    Бит/(Пиксели*Кадры) : 0.175
    Размер потока : 634 Мбайт (85%)
    Библиотека кодирования : XviD 1.2.1 (UTC 2008-12-04)

    Аудио
    Идентификатор : 1
    Формат : MPEG Audio
    Версия формата : Version 1
    Профиль формата : Layer 3
    Идентификатор кодека : 55
    Идентификатор кодека/Подсказка : MP3
    Продолжительность : 1 ч. 53 м.
    Вид битрейта : Постоянный
    Битрейт : 128 Кбит/сек
    Каналы : 2 канала
    Частота : 48,0 КГц
    Метод сжатия : С потерями
    Размер потока : 104 Мбайт (14%)
    Выравнивание : Соединение по промежуткам
    Продолжительность промежутка : 40 мс. (1,00 видеокадр)
    Время предзагрузки промежутка : 504 ms
    Библиотека кодирования : LAME3.99r
    Залил: Losk
    Размер скачиваемого торрента: 745.87 MB (782102528 Bytes)


    Ромео и Джульетта / Romeo and Juliet (2013) WEB-DLRip скачать через торрент бесплатно
    загрузка...
    Рейтинг →
     (голосов: 1, оценка 5/5, голосовать можно 1 раз )

    Другие торренты по теме:

  • Ромео и Юлия / Romeo i Julcia (1933) TVRip торрент скачать бесплатно
  • Ромео должен умереть / Romeo Must Die (2000) DVD9 от NovaLan торрент скачать бесплатно
  • Ромео и Джульетта / Romeo and Juliet (1968) BDRip от HQ-ViDEO торрент скачать бесплатно
  • Ромео и Джульетта / Romeo and Juliet (1968) BDRip от HQCLUB торрент скачать бесплатно
  • Ромео и Джульетта / Romeo and Juliet: A Love Song (2013) DVD5 от Youtracker | Sub | сжатый торрент скачать бесплатно
  • Ромео и Джульетта / Romeo and Juliet: A Love Song (2013) DVDRip-AVC от Youtracker | Sub | лицензия торрент скачать бесплатно
  • Ромео и Джульетта / Romeo and Juliet: A Love Song (2013) DVD9 R5 от Youtracker | Sub | лицензия торрент скачать бесплатно
  • Ромео и Джульетта / Romeo and Juliet: A Love Song (2013) DVDRip от Youtracker | Sub | лицензия торрент скачать бесплатно


    • Комментарии (0):

      Информация

      Информация

        Посетители, находящиеся в группе Гости, не могут оставлять комментарии в данной новости.

        ↓ Меню



        ↓ Опрос

        А Вы добавили сайт в закладки?
        Да
        Не


        Top 10 за неделю (Фильмы)