.
Авторизация | Регистрация
» » Баффи - истребительница вампиров / Buffy the Vampire Slayer (1992) HDRip от Generalfilm | КПК скачать через торрент бесплатно




    Баффи - истребительница вампиров / Buffy the Vampire Slayer (1992) HDRip от Generalfilm | КПК скачать через торрент бесплатно

    Опубликовал: Админ | Дата: 27-02-2015, 11:09 | Просмотров: 298



    Детально о кино
    Русское название: Баффи - истребительница вампиров
    Русское название в мировом прокате: Buffy the Vampire Slayer
    Создали в: 1992
    Категория жанра: Ужасы, боевик, комедия
    Главный режиссер: Фрэн Рубел Кузуи
    Актеры: Кристи Суонсон, Дональд Сазерленд, Пол Рубенс, Рутгер Хауэр, Люк Перри, Мишель Абрамс, Хилари Суэнк, Пэрис Вон, Дэвид Аркетт, Рэндолл Батинкофф, Эндрю Лоури, Саша Дженсон, Стивен Рут, Наташа Грегсон Вагнер, Марк ДеКарло

    Сюжет фильма:
    Познакомьтесь с Баффи! У нее была мечта — закончить школу, уехать в Европу и выйти замуж. План серьезный и требующий усердия, жизнь вовсе не казалась ей скучной: магазины, вечеринки, спортзал, группа поддержки местной спортивной команды и прочее. Ее находит странный тип и, едва представившись, начинает погружать в премудрости совсем другой жизни. Оказывается, человечество не одиноко: где-то рядом, среди нас живут вампиры. Баффи узнаёт, что она избрана и ее основная профессия — освобождать обычных людей от неприятного соседства



    Снималось в: США
    Киностудия: 20th century FOX
    Время просмотра: 01:25:30
    Перевод текста: Профессиональный (многоголосый, закадровый)

    Файл
    Тип видео: MP4
    Качество фильма: HDRip | КПК
    Информация о видео: MPEG-4 AVC (x264), 640x344, ~500 kbps, 23.976 fps
    Информация о звуке: AAC LC, 48.0 KHz, 2 ch, 128 Kbps
    Субтитры: Нет

    Семпл

    Скриншоты для ознакомления

    MI
    Complete name : E:KinoBaffi.AVC.KPK.GeneralfilmBaffi.Istrebitelnica.Vampirov.1992.AVC.HDRip.KPK.Generalfilm.mp4
    Format : MPEG-4
    Format profile : Base Media
    Codec ID : isom
    File size : 386 MiB
    Duration : 1h 25mn
    Overall bit rate mode : Variable
    Overall bit rate : 630 Kbps
    Encoded date : UTC 2013-11-29 12:46:49
    Tagged date : UTC 2013-11-29 12:46:49

    Video
    ID : 1
    Format : AVC
    Format/Info : Advanced Video Codec
    Format profile : Baseline@L4.1
    Format settings, CABAC : No
    Format settings, ReFrames : 6 frames
    Codec ID : avc1
    Codec ID/Info : Advanced Video Coding
    Duration : 1h 25mn
    Bit rate : 500 Kbps
    Maximum bit rate : 2 378 Kbps
    Width : 640 pixels
    Height : 344 pixels
    Display aspect ratio : 1.85:1
    Frame rate mode : Constant
    Frame rate : 23.976 fps
    Color space : YUV
    Chroma subsampling : 4:2:0
    Bit depth : 8 bits
    Scan type : Progressive
    Bits/(Pixel*Frame) : 0.095
    Stream size : 306 MiB (79%)
    Writing library : x264 core 125 r2200 999b753
    Encoding settings : cabac=0 / ref=6 / deblock=1:-1:-1 / analyse=0x1:0x111 / me=umh / subme=7 / psy=1 / psy_rd=1.00:0.00 / mixed_ref=0 / me_range=16 / chroma_me=1 / trellis=1 / 8x8dct=0 / cqm=0 / deadzone=21,11 / fast_pskip=0 / chroma_qp_offset=-2 / threads=12 / lookahead_threads=2 / sliced_threads=0 / nr=0 / decimate=1 / interlaced=0 / bluray_compat=0 / constrained_intra=0 / bframes=0 / weightp=0 / keyint=250 / keyint_min=23 / scenecut=40 / intra_refresh=0 / rc_lookahead=60 / rc=2pass / mbtree=1 / bitrate=500 / ratetol=1.0 / qcomp=0.60 / qpmin=0 / qpmax=69 / qpstep=4 / cplxblur=20.0 / qblur=0.5 / ip_ratio=1.40 / aq=1:1.00
    Encoded date : UTC 2013-11-29 12:46:49
    Tagged date : UTC 2013-11-29 12:46:57

    Audio
    ID : 2
    Format : AAC
    Format/Info : Advanced Audio Codec
    Format profile : LC
    Codec ID : 40
    Duration : 1h 25mn
    Bit rate mode : Variable
    Bit rate : 128 Kbps
    Maximum bit rate : 149 Kbps
    Channel count : 2 channels
    Channel positions : Front: L R
    Sampling rate : 48.0 KHz
    Compression mode : Lossy
    Stream size : 78.3 MiB (20%)
    Encoded date : UTC 2013-11-29 12:46:56
    Tagged date : UTC 2013-11-29 12:46:57

    Релиз подготовил:
    Залил: toys_watch
    Размер скачиваемого торрента: 385.51 MB (404235462 Bytes)

    Баффи - истребительница вампиров / Buffy the Vampire Slayer (1992) HDRip от Generalfilm | КПК скачать через торрент бесплатно
    загрузка...
    Рейтинг →
     (голосов: 1, оценка 5/5, голосовать можно 1 раз )

    Другие торренты по теме:



      Комментарии (0):

      Информация

      Информация

        Посетители, находящиеся в группе Гости, не могут оставлять комментарии в данной новости.

        ↓ Меню



        ↓ Опрос

        А Вы добавили сайт в закладки?
        Да
        Не


        Top 10 за неделю (Фильмы)