.
Авторизация | Регистрация
» » Король Техаса / King of Texas (2002) HDRip от Leon-masl скачать через торрент бесплатно




    Король Техаса / King of Texas (2002) HDRip от Leon-masl скачать через торрент бесплатно

    Опубликовал: Админ | Дата: 27-02-2015, 11:09 | Просмотров: 290



    Детально о кино
    Русское название: Король Техаса
    Русское название в мировом прокате: King of Texas
    Создали в: 2002
    Категория жанра: Вестерн, драма
    Главный режиссер: Ули Эдель
    Актеры: Патрик Стюарт, Лорен Холли, Рой Шайдер, Патрик Берджин, Марсия Гэй Харден, Стивен Бауэр

    Сюжет фильма:
    Наследство Джона Лира - его империя, построенная на земле Техаса, которой он правит, не стесняясь в выборе средств. Решив разделить свои владения между тремя дочерьми - Клодией, Сюзанной и Ребеккой - Джон ставит одно условие: наследство получат лишь доказавшие свою любовь к отцу. Сюзанна и Ребекка готовы пойти на любой обман, чтобы обеспечить себе будущее. А Клодия, осмелившаяся сказать правду, изгоняется из дома. Но ее изгнание лишь разжигает огонь вражды. Завладев имуществом отца, вероломные Сюзанна и Ребекка тут же выгоняют его в дикие прерии. Узнав, что такое предательство, сражаясь с непредсказуемыми силами природы и подосланными убийцами, Джон примиряется с Клодией. Но грехи отца уже пали на головы его дочерей... Да, вы угадали: король Лир и вестерн! Интригующе!..



    Снималось в: США
    Киностудия: Flying Freehold Productions, Hallmark Entertainment, Turner Network Television (TNT)
    Время просмотра: 01:31:14
    Перевод текста: Профессиональный (двухголосый)

    Файл
    Кодек для видео: XviD
    Качество фильма: HDRip с |BDRip1080p|
    Информация о видео: 720x400, 25.000 fps, XviD build 73 ~ 1831 kbps
    Информация о звуке: 48 kHz, AC3 Dolby Digital, 3/2 (L,C,R,l,r) ch, ~448.00 kbps
    mi
    Общее
    Полное имя : King.of.Texas.2002.HDRip.avi
    Формат : AVI
    Формат/Информация : Audio Video Interleave
    Размер файла : 1,46 Гбайт
    Продолжительность : 1 ч. 31 м.
    Общий поток : 2289 Кбит/сек
    Программа кодирования : VirtualDubMod 1.5.10.2 (build 2542/release)
    Библиотека кодирования : VirtualDubMod build 2542/release

    Видео
    Идентификатор : 0
    Формат : MPEG-4 Visual
    Профиль формата : Advanced Simple@L5
    Параметр BVOP формата : 1
    Параметр QPel формата : Нет
    Параметр GMC формата : Без точки перехода
    Параметр матрицы формата : Выборочная
    Идентификатор кодека : XVID
    Идентификатор кодека/Подсказка : XviD
    Продолжительность : 1 ч. 31 м.
    Битрейт : 1831 Кбит/сек
    Ширина : 720 пикс.
    Высота : 400 пикс.
    Соотношение сторон : 16:9
    Частота кадров : 25,000 кадр/сек
    Цветовое пространство : YUV
    Подвыборка цветности : 4:2:0
    Битовая глубина : 8 бит
    Тип развёртки : Прогрессивная
    Метод сжатия : С потерями
    Бит/(Пиксели*Кадры) : 0.254
    Размер потока : 1,17 Гбайт (80%)
    Библиотека кодирования : XviD 73

    Аудио
    Идентификатор : 1
    Формат : AC-3
    Формат/Информация : Audio Coding 3
    Расширение режима : CM (complete main)
    Идентификатор кодека : 2000
    Продолжительность : 1 ч. 31 м.
    Вид битрейта : Постоянный
    Битрейт : 448 Кбит/сек
    Канал(ы) : 5 канала(ов)
    Расположение каналов : Front: L C R, Side: L R
    Частота : 48,0 КГц
    Битовая глубина : 16 бит
    Метод сжатия : С потерями
    Задержка видео : 28 мс.
    Размер потока : 292 Мбайт (20%)
    Выравнивание : Разделение по промежуткам
    Продолжительность промежутка : 40 мс. (1,00 видеокадр)
    Время предзагрузки промежутка : 500 ms
    Скриншоты для ознакомления


    Релиз подготовил: Leon-masl
    Залил: leon-masl
    Размер скачиваемого торрента: 1.46 GB (1565966336 Bytes)

    Король Техаса / King of Texas (2002) HDRip от Leon-masl скачать через торрент бесплатно
    загрузка...
    Рейтинг →
     (голосов: 1, оценка 5/5, голосовать можно 1 раз )

    Другие торренты по теме:

  • Король Техаса / King of Texas (2002) BDRip-AVC от MediaClub | P2 торрент скачать бесплатно


    • Комментарии (0):

      Информация

      Информация

        Посетители, находящиеся в группе Гости, не могут оставлять комментарии в данной новости.

        ↓ Меню



        ↓ Опрос

        А Вы добавили сайт в закладки?
        Да
        Не


        Top 10 за неделю (Фильмы)