.
Авторизация | Регистрация
» » Пепел (2013) DVDRip от New-Team | лицензия скачать через торрент бесплатно




    Пепел (2013) DVDRip от New-Team | лицензия скачать через торрент бесплатно

    Опубликовал: Админ | Дата: 27-02-2015, 11:09 | Просмотров: 282

    Чужое имя – чужая жизнь



    Снималось в: Россия / ВайТ Медиа
    Категория жанра: военный, история
    Создали в: 2013
    Время просмотра: 10 серий ~ 44 мин.

    Перевод текста: не требуется
    Субтитры подготовлены: нет
    Оригинальная аудиодорожка: русский

    Главный режиссер: Вадим Перельман

    Актеры: Владимир Машков, Евгений Миронов, Елена Лядова, Сергей Гармаш, Чулпан Хаматова, Андрей Смоляков, Петр Мамонов, Владимир Гостюхин, Ирина Розанова, Сергей Чонишвили...

    Сюжет: СССР, 1938 год. В купе поезда встречаются вор Сенька Пепел и капитан Красной армии Игорь Петров, которому грозит арест. Неожиданно перед красноармейцем открывается фантастический шанс избежать верной смерти: он меняется с Пеплом одеждой, документами и забирает воровской общак. Однако Петров изменил не только свою жизнь, но и судьбу любимой женщины Риты, которой предстоят поиски мужа, мучительное ожидание и встреча с Пеплом, которого все теперь принимают за Петрова.



    Качество фильма: DVDRip (2 x DVD9 R5)
    Тип видео: AVI

    Информация о видео: 720x400 (16:9), 25.000 fps, XViD ~ 2000 kbps avg, 0.278 bit/pixel
    Информация о звуке: 48 kHz, АС3 2 ch, 192 kbps, русский

    Раздача от:
    MediaInfo

    Общее
    Полное имя : Pepel.2013.O.DVDRip_New-Team_by_avproh1.avi
    Формат : AVI
    Формат/Информация : Audio Video Interleave
    Размер файла : 683 Мбайт
    Продолжительность : 43 м.
    Общий поток : 2201 Кбит/сек
    Программа кодирования : VirtualDubMod 1.5.10.3 | www.virtualdub-fr.org || (build 2550/release)
    Библиотека кодирования : VirtualDubMod build 2550/release

    Видео
    Идентификатор : 0
    Формат : MPEG-4 Visual
    Профиль формата : Advanced Simple@L5
    Параметр BVOP формата : 1
    Параметр QPel формата : Нет
    Параметр GMC формата : Без точки перехода
    Параметр матрицы формата : Выборочная
    Идентификатор кодека : XVID
    Идентификатор кодека/Подсказка : XviD
    Продолжительность : 43 м.
    Битрейт : 2000 Кбит/сек
    Ширина : 720 пикселей
    Высота : 400 пикселей
    Соотношение сторон : 16:9
    Частота кадров : 25,000 кадров/сек
    Цветовое пространство : YUV
    Субдискретизация насыщенности : 4:2:0
    Битовая глубина : 8 бит
    Тип развёртки : Прогрессивная
    Метод сжатия : С потерями
    Бит/(Пиксели*Кадры) : 0.278
    Размер потока : 620 Мбайт (91%)
    Библиотека кодирования : XviD 73

    Аудио
    Идентификатор : 1
    Формат : AC-3
    Формат/Информация : Audio Coding 3
    Расширение режима : CM (complete main)
    Параметр Endianness формата : Big
    Идентификатор кодека : 2000
    Продолжительность : 43 м.
    Вид битрейта : Постоянный
    Битрейт : 192 Кбит/сек
    Каналы : 2 канала
    Расположение каналов : Front: L R
    Частота : 48,0 КГц
    Битовая глубина : 16 бит
    Метод сжатия : С потерями
    Размер потока : 59,6 Мбайт (9%)
    Выравнивание : Разделение по промежуткам
    Продолжительность промежутка : 40 мс. (1,00 видеокадр)
    Время предзагрузки промежутка : 500 мс.

    Скриншоты для ознакомления:



    Сравнение:

    http://www.rutor.org/torrent/313936/

    Звук: http://screenshotcomparison.com/comparison/52784
    Видео: http://screenshotcomparison.com/comparison/52786

    Во всех предыдущих раздачах звук не лучше этого:

    Залил: avproh
    Размер скачиваемого торрента: 6.73 GB (7221852160 Bytes)

    Пепел (2013) DVDRip от New-Team | лицензия скачать через торрент бесплатно
    загрузка...
    Рейтинг →
     (голосов: 1, оценка 5/5, голосовать можно 1 раз )

    Другие торренты по теме:

  • Антон Евтушенко - Пепел (2012) MP3 торрент скачать бесплатно
  • Алексей Глызин - Пепел любви (1994) FLAC от Underverse торрент скачать бесплатно
  • Пепел (2013) SATRip от GeneralFilm торрент скачать бесплатно
  • Пепел (2013) WEB-DL 1080p торрент скачать бесплатно
  • Пепел (2013) DVB торрент скачать бесплатно
  • Пепел (2013) WEB-DL 720p торрент скачать бесплатно
  • Пепел (2013) IPTVRip торрент скачать бесплатно
  • Пепел (2013) WEB-DLRip-AVC от ExKinoRay скачать через торрент бесплатно


    • Комментарии (0):

      Информация

      Информация

        Посетители, находящиеся в группе Гости, не могут оставлять комментарии в данной новости.

        ↓ Меню



        ↓ Опрос

        А Вы добавили сайт в закладки?
        Да
        Не


        Top 10 за неделю (Фильмы)