.
Авторизация | Регистрация
» » Винчи, или Ва-банк 3 / Vinci (2004) DVDRip от New-Team торрент скачать бесплатно




    Винчи, или Ва-банк 3 / Vinci (2004) DVDRip от New-Team торрент скачать бесплатно

    Опубликовал: Админ | Дата: 27-02-2015, 11:09 | Просмотров: 318


    Снималось в: Польша
    Создали в: Студия Фильмов Зебра
    Категория жанра: комедия, криминал
    Создали в: 2004
    Время просмотра: 01:47:38

    Перевод текста: Профессиональный (многоголосый закадровый)
    Оригинальная аудиодорожка: польский
    Субтитры подготовлены: нет

    Главный режиссер: Юлиуш Махульский / Juliusz Machulski

    Актеры:
    Роберт Вечкевич, Юзеф Палечка, Борис Шиц, Ежи Гралек, Мариола Паячковская, Марчин Дорочиньский, Лукаш Симлат, Карина Северин, Мечислав Громбка, Халина Лабонарска...

    Сюжет:
    Два поляка — Цума (Robert Wi?ckiewicz) и Юлиан (Borys Szyc) специализируются на квартирных кражах произведений искусства. После ограбления коллекционера Цуму задерживает полиция, но его напарнику удаётся скрыться с добычей. Через несколько лет Цума выходит из тюрьмы в отпуск по болезни. У него уже есть работа — в пользу крупного бизнесмена по прозвищу Толстый (Mieczys?aw Gr?bka) он должен похитить картину Дама с горностаем работы Леонардо да Винчи, которая находится в национальном музее. Во время кражи Цума намерен заменить картину копией. За помощью Цума обращается к своему другу Юлиану. Он не знает, что за прошедшее время Юлиан завязал и теперь работает в полиции. Юлиан не хочет, чтобы картина, являющаяся национальным достоянием Польши, была украдена. Он соглашается помочь Цуме, на самом же деле заказывает две копии, дабы обмануть самого напарника и сохранить картину государству…



    Исходник: DVD5 R5
    Тип релиза: DVDRip
    Контейнер: AVI

    Информация о видео: 720x400 (16:9), 25 fps, XviD ~ 1160 kbps avg, 0.161 bit/pixel
    Информация о звуке: 48 kHz, Dolby AC3 5.1, 384 kbps Русский
    Информация о звуке: 48 kHz, Dolby AC3 5.1, 384 kbps Польский

    Раздача от:
    MediaInfo

    Общее
    Полное имя : Vinchi.ili.Vabank.3.2004.DVDRip_New-team_by_AVP_Studio.avi
    Формат : AVI
    Формат/Информация : Audio Video Interleave
    Размер файла : 1,46 Гбайт
    Продолжительность : 1 ч. 47 м.
    Общий поток : 1942 Кбит/сек
    Программа кодирования : VirtualDubModRus 1.5.10.2 (build 2542/release)
    Библиотека кодирования : VirtualDubMod build 2542/release

    Видео
    Идентификатор : 0
    Формат : MPEG-4 Visual
    Профиль формата : Advanced Simple@L5
    Параметр BVOP формата : 1
    Параметр QPel формата : Нет
    Параметр GMC формата : Без точки перехода
    Параметр матрицы формата : Выборочная
    Идентификатор кодека : XVID
    Идентификатор кодека/Подсказка : XviD
    Продолжительность : 1 ч. 47 м.
    Битрейт : 1160 Кбит/сек
    Ширина : 720 пикселей
    Высота : 400 пикселей
    Соотношение сторон : 16:9
    Частота кадров : 25,000 кадров/сек
    Цветовое пространство : YUV
    Субдискретизация насыщенности : 4:2:0
    Битовая глубина : 8 бит
    Тип развёртки : Прогрессивная
    Метод сжатия : С потерями
    Бит/(Пиксели*Кадры) : 0.161
    Размер потока : 893 Мбайт (60%)
    Библиотека кодирования : XviD 73

    Аудио #1
    Идентификатор : 1
    Формат : AC-3
    Формат/Информация : Audio Coding 3
    Расширение режима : CM (complete main)
    Идентификатор кодека : 2000
    Продолжительность : 1 ч. 47 м.
    Вид битрейта : Постоянный
    Битрейт : 384 Кбит/сек
    Каналы : 6 каналов
    Расположение каналов : Front: L C R, Side: L R, LFE
    Частота : 48,0 КГц
    Битовая глубина : 16 бит
    Метод сжатия : С потерями
    Размер потока : 296 Мбайт (20%)
    Выравнивание : Разделение по промежуткам
    Продолжительность промежутка : 40 мс. (1,00 видеокадр)
    Время предзагрузки промежутка : 500 мс.

    Аудио #2
    Идентификатор : 2
    Формат : AC-3
    Формат/Информация : Audio Coding 3
    Расширение режима : CM (complete main)
    Идентификатор кодека : 2000
    Продолжительность : 1 ч. 47 м.
    Вид битрейта : Постоянный
    Битрейт : 384 Кбит/сек
    Каналы : 6 каналов
    Расположение каналов : Front: L C R, Side: L R, LFE
    Частота : 48,0 КГц
    Битовая глубина : 16 бит
    Метод сжатия : С потерями
    Размер потока : 296 Мбайт (20%)
    Выравнивание : Разделение по промежуткам
    Продолжительность промежутка : 40 мс. (1,00 видеокадр)
    Время предзагрузки промежутка : 500 мс

    Скриншоты для ознакомления



    Награды

    2004, 29-й Фестиваль Польских Художественных Фильмов, Гдыня:
    Приз за лучший сценарий — Юлиушу Махульскому.
    2004, Международный фестиваль чёрных фильмов, Курмайор (Noir in Festival, Courmayeur):
    Приз жюри — Роберту Венцкевичу.
    Приз жюри — Борису Шицу.
    2005, Польская Кинематографическая Премия Орёл:
    Премия в номинации Лучшая режиссура — Юлиушу Махульскому.
    Премия в номинации Лучший сценарий — Юлиушу Махульскому.

    Залил: AVPStudio
    Размер скачиваемого торрента: 1.46 GB (1567803392 Bytes)

    Винчи, или Ва-банк 3 / Vinci (2004) DVDRip от New-Team торрент скачать бесплатно
    загрузка...
    Рейтинг →
     (голосов: 1, оценка 4/5, голосовать можно 1 раз )

    Другие торренты по теме:

  • Винчи, или Ва-банк 3 / Vinci (2004) DVDRip-AVC от New-Team скачать через торрент бесплатно


    • Комментарии (0):

      Информация

      Информация

        Посетители, находящиеся в группе Гости, не могут оставлять комментарии в данной новости.

        ↓ Меню



        ↓ Опрос

        А Вы добавили сайт в закладки?
        Да
        Не


        Top 10 за неделю (Фильмы)