.
Авторизация | Регистрация
Хочешь лучшие торренты? Добавь свой email!
Добавить
» » Хоббит: Пустошь Смауга / The Hobbit: The Desolation of Smaug (2013) HD 720p | Трейлер торрент скачать бесплатно




    Хоббит: Пустошь Смауга / The Hobbit: The Desolation of Smaug (2013) HD 720p | Трейлер торрент скачать бесплатно

    Опубликовал: Админ | Дата: 27-02-2015, 11:09 | Просмотров: 1625



    Создали в: 2013
    Создали в: США, Новая Зеландия
    Категория жанра: Фэнтези, Приключения
    Перевод текста: Дублированный

    Дата мировой премьеры: 2 декабря 2013
    Дата российской премьеры: 18 декабря 2013, Каро-Премьер

    Главный режиссер: Питер Джексон
    Продюсер: Кэролинн Каннингэм, Питер Джексон, Фрэнсис Уолш, ...
    Актеры: Мартин Фриман, Иэн МакКеллен, Ричард Армитидж, Джеймс Несбитт, Кен Стотт, Грэм МакТавиш, Уильям Кирчер, Стивен Хантер, Дин О’Горман, Эйдан Тернер ...

    Сюжет фильма:
    После успешного перехода через Туманные горы, Торин и компания вынуждены обратиться за помощью к могучему незнакомцу, прежде чем отправиться в опасное Лихолесье без волшебника. Их компания обязана завершить свое путешествие к Одинокой горе, где Бэггинсу нужно будет найти потайную дверь, чтобы добраться до клада Смауга…



    Время просмотра: 00:02:16
    Качество фильма видео: HD 720p

    Информация о видеокодек: MPEG-4 AVC/H.264
    Битрейт видео: ~1341 Кбит/сек
    Размер скачиваемого торрента кадра: 1280х544
    Информация о звукекодек: AAC 2.0
    Битрейт аудио: 192 Кбит/сек
    MediaInfo:
    Общее
    Полное имя : D:ФИЛЬМЫThe Hobbit. The Desolation of Smaug (2013) HD 720p trailer.mp4
    Формат : MPEG-4
    Профиль формата : Base Media / Version 2
    Идентификатор кодека : mp42
    Размер файла : 25,0 Мбайт
    Продолжительность : 2 м. 16 с.
    Режим общего битрейта : Переменный
    Общий поток : 1535 Кбит/сек
    Дата кодирования : UTC 2013-11-27 03:36:04
    Дата пометки : UTC 2013-11-27 03:36:04
    gsst : 0
    gstd : 136835
    gssd : BD075FE21HH1387098721161714
    gshh : tc.v21.cache2.googlevideo.com

    Видео
    Идентификатор : 1
    Формат : AVC
    Формат/Информация : Advanced Video Codec
    Профиль формата : High@L3.1
    Параметр CABAC формата : Да
    Параметр ReFrames формата : 1 кадр
    Идентификатор кодека : avc1
    Идентификатор кодека/Информация : Advanced Video Coding
    Продолжительность : 2 м. 16 с.
    Битрейт : 1341 Кбит/сек
    Максимальный битрейт : 3426 Кбит/сек
    Ширина : 1280 пикселей
    Высота : 544 пикселя
    Соотношение сторон : 2,35:1
    Режим частоты кадров : Постоянный
    Частота кадров : 25,000 кадров/сек
    Цветовое пространство : YUV
    Субдискретизация насыщенности : 4:2:0
    Битовая глубина : 8 бит
    Тип развёртки : Прогрессивная
    Бит/(Пиксели*Кадры) : 0.077
    Размер потока : 21,9 Мбайт (87%)
    Дата пометки : UTC 2013-11-27 03:36:05

    Аудио
    Идентификатор : 2
    Формат : AAC
    Формат/Информация : Advanced Audio Codec
    Профиль формата : LC
    Идентификатор кодека : 40
    Продолжительность : 2 м. 16 с.
    Вид битрейта : Переменный
    Битрейт : 192 Кбит/сек
    Максимальный битрейт : 204 Кбит/сек
    Каналы : 2 канала
    Расположение каналов : Front: L R
    Частота : 44,1 КГц
    Метод сжатия : С потерями
    Размер потока : 3,13 Мбайт (13%)
    Заголовок : IsoMedia File Produced by Google, 5-11-2011
    Дата кодирования : UTC 2013-11-27 03:36:05
    Дата пометки : UTC 2013-11-27 03:36:05


    Скриншоты для ознакомления:

    Залил: Саша 1992
    Размер скачиваемого торрента: 25.02 MB (26239154 Bytes)

    Хоббит: Пустошь Смауга / The Hobbit: The Desolation of Smaug (2013) HD 720p | Трейлер торрент скачать бесплатно
    загрузка...
    Рейтинг →
     (голосов: 1, оценка 5/5, голосовать можно 1 раз )

    Другие торренты по теме:



      Комментарии (0):

      Информация

      Информация

        Посетители, находящиеся в группе Гости, не могут оставлять комментарии в данной новости.

        ↓ Меню



        ↓ Опрос

        А Вы добавили сайт в закладки?
        Да
        Не


        Top 10 за месяц (Фильмы)