.
Авторизация | Регистрация
» » Артур Ньюман, профессионал гольфа / Arthur Newman (2012) HDTVRip от MediaClub | P скачать через торрент бесплатно




    Артур Ньюман, профессионал гольфа / Arthur Newman (2012) HDTVRip от MediaClub | P скачать через торрент бесплатно

    Опубликовал: Админ | Дата: 27-02-2015, 11:09 | Просмотров: 245



    Детально о кино
    Русское название: Артур Ньюман, профессионал гольфа
    Русское название в мировом прокате: Arthur Newman
    Создали в: 2012
    Категория жанра: Драма, комедия
    Главный режиссер: Данте Ариола
    Актеры: Эмили Блант, Колин Фёрт, Энн Хеч, Кристин Леман, Стерлинг Бомон, Отем Диал, М. Эммет Уолш, Николь Лалиберт, Дэвид Эндрюс, Шэрон Моррис

    Сюжет фильма:
    Пожалуй, в жизни многих людей бывают моменты, когда хочется полностью перечеркнуть свое прошлое и настоящее и начать жизнь с чистого листа. В большинстве своем эти мечты так и остаются мечтами, но вот главный герой фильма Уоллес решился на кардинальные изменения.



    Снималось в: США
    Киностудия: Cross Creek Pictures, Vertebra Films
    Время просмотра: 01:29:49
    Перевод текста: Профессиональный многоголосый (Amedia)

    Файл
    Кодек для видео: XviD
    Качество фильма: HDTVRip
    Информация о видео: 1589 Кбит/с, 688x288, 25.000 кадр/с
    Информация о звуке:
    Информация о звуке #1: Русский (АС3, 6 ch, 384 Кбит/с)
    Информация о звуке #2: Английский (AC3, 2 ch, 192 Кбит/с)

    Семпл

    Скриншоты для ознакомления

    MI
    Общее
    Полное имя : Artur.Njuman.2012.HDTVRip.MediaClub.avi
    Формат : AVI
    Формат/Информация : Audio Video Interleave
    Размер файла : 1,37 Гбайт
    Продолжительность : 1 ч. 29 м.
    Общий поток : 2179 Кбит/сек
    Название фильма : MediaClub
    Программа кодирования : VirtualDubMod 1.5.10.2 (build 2540/release)
    Библиотека кодирования : VirtualDubMod build 2540/release

    Видео
    Идентификатор : 0
    Формат : MPEG-4 Visual
    Профиль формата : Advanced Simple@L5
    Параметр BVOP формата : 2
    Параметр QPel формата : Нет
    Параметр GMC формата : Без точки перехода
    Параметр матрицы формата : Default (MPEG)
    Идентификатор кодека : XVID
    Идентификатор кодека/Подсказка : XviD
    Продолжительность : 1 ч. 29 м.
    Битрейт : 1589 Кбит/сек
    Ширина : 688 пикселей
    Высота : 288 пикселей
    Соотношение сторон : 2,40:1
    Частота кадров : 25,000 кадров/сек
    Цветовое пространство : YUV
    Субдискретизация насыщенности : 4:2:0
    Битовая глубина : 8 бит
    Тип развёртки : Прогрессивная
    Метод сжатия : С потерями
    Бит/(Пиксели*Кадры) : 0.321
    Размер потока : 1021 Мбайт (73%)
    Библиотека кодирования : XviD 65

    Аудио #1
    Идентификатор : 1
    Формат : AC-3
    Формат/Информация : Audio Coding 3
    Расширение режима : CM (complete main)
    Параметр Endianness формата : Big
    Идентификатор кодека : 2000
    Продолжительность : 1 ч. 29 м.
    Вид битрейта : Постоянный
    Битрейт : 384 Кбит/сек
    Каналы : 6 каналов
    Расположение каналов : Front: L C R, Side: L R, LFE
    Частота : 48,0 КГц
    Битовая глубина : 16 бит
    Метод сжатия : С потерями
    Размер потока : 247 Мбайт (18%)
    Выравнивание : Разделение по промежуткам
    Продолжительность промежутка : 40 мс. (1,00 видеокадр)
    Время предзагрузки промежутка : 500 мс.

    Аудио #2
    Идентификатор : 2
    Формат : AC-3
    Формат/Информация : Audio Coding 3
    Расширение режима : CM (complete main)
    Параметр Endianness формата : Big
    Идентификатор кодека : 2000
    Продолжительность : 1 ч. 29 м.
    Вид битрейта : Постоянный
    Битрейт : 192 Кбит/сек
    Каналы : 2 канала
    Расположение каналов : Front: L R
    Частота : 48,0 КГц
    Битовая глубина : 16 бит
    Метод сжатия : С потерями
    Размер потока : 123 Мбайт (9%)
    Выравнивание : Разделение по промежуткам
    Продолжительность промежутка : 40 мс. (1,00 видеокадр)
    Время предзагрузки промежутка : 500 мс.


    Релиз подготовил:
    Залил: poja
    Размер скачиваемого торрента: 1.37 GB (1467957248 Bytes)

    Артур Ньюман, профессионал гольфа / Arthur Newman (2012) HDTVRip от MediaClub | P скачать через торрент бесплатно
    загрузка...
    Рейтинг →
     (голосов: 1, оценка 3/5, голосовать можно 1 раз )

    Другие торренты по теме:



      Комментарии (0):

      Информация

      Информация

        Посетители, находящиеся в группе Гости, не могут оставлять комментарии в данной новости.

        ↓ Меню



        ↓ Опрос

        А Вы добавили сайт в закладки?
        Да
        Не


        Top 10 за неделю (Фильмы)