.
Авторизация | Регистрация
» » Корабль-призрак / Ghost Ship (2002) BDRip by msltel | D, P, A скачать через торрент бесплатно




    Корабль-призрак / Ghost Ship (2002) BDRip by msltel | D, P, A скачать через торрент бесплатно

    Опубликовал: Админ | Дата: 27-02-2015, 11:09 | Просмотров: 313



    Русское название: Корабль-призрак
    Русское название в мировом прокате: Ghost Ship
    Создали в: 2002
    Категория жанра: Ужасы, триллер, детектив
    Снималось в: США, Австралия, Dark Castle Entertainment
    Главный режиссер: Стив Бек
    Актеры: Гэбриел Бирн, Джулианна Маргулис, Рон Элдард, Десмонд Харрингтон, Айзэйя Вашингтон, Алекс Димитриадес, Карл Урбан, Эмили Браунинг, Франческа Реттондини, Борис Бркич

    Сюжет фильма: В отдалённой области Берингова моря команда спасателей обнаруживает останки огромного пассажирского лайнера, который считался затерянным на протяжении более сорока лет. Оказавшись на борту судна, спасатели сталкиваются с жутким прошлым корабля и вынуждены вступить в смертельную схватку, ставка в которой — их жизнь.

    Качество фильма: BDRip
    Размер скачиваемого торрента: 2.92 ГБ
    Время просмотра: 01:30:43

    Информация о видео: XviD, 1908 Кбит/с, 704x400
    Информация о звуке 1: русский, 48 kHz, AC3, 6 ch, 448 kbps avg, Дублированный
    Информация о звуке 2: русский, 48 kHz, AC3, 6 ch, 448 kbps avg, Профессиональный многоголосый

    Внешние файлы
    Информация о звуке: русский, 48 kHz, AC3, 6 ch, 448 kbps avg, Авторский, Андрей Гаврилов
    Информация о звуке: русский, 48 kHz, AC3, 6 ch, 448 kbps avg, Авторский, Юрий Живов
    Информация о звуке: русский, 48 kHz, AC3, 6 ch, 448 kbps avg, Авторский, Евгений Рудой
    Информация о звуке: английский, 48 kHz, AC3, 6 ch, 448 kbps avg, Оригинал
    Субтитры: русские
    Субтитры: английские

    Исходник: delo2006 (HDTracker)

    Сравнение с исходником



    MediaInfo
    Общее
    Полное имя : E:VideoKorabl-prizrak.2002.XviD.BDRipKorabl-prizrak.2002.AVO.rus.А.Гаврилов.ac3
    Формат : AC-3
    Формат/Информация : Audio Coding 3
    Размер файла : 291 Мбайт
    Продолжительность : 1 ч. 30 м.
    Режим общего битрейта : Постоянный
    Общий поток : 448 Кбит/сек

    Аудио
    Формат : AC-3
    Формат/Информация : Audio Coding 3
    Расширение режима : CM (complete main)
    Параметр Endianness формата : Big
    Продолжительность : 1 ч. 30 м.
    Вид битрейта : Постоянный
    Битрейт : 448 Кбит/сек
    Каналы : 6 каналов
    Расположение каналов : Front: L C R, Side: L R, LFE
    Частота : 48,0 КГц
    Битовая глубина : 16 бит
    Метод сжатия : С потерями
    Размер потока : 291 Мбайт (100%)

    Общее
    Полное имя : E:VideoKorabl-prizrak.2002.XviD.BDRipKorabl-prizrak.2002.AVO.rus.Е.Рудой.ac3
    Формат : AC-3
    Формат/Информация : Audio Coding 3
    Размер файла : 291 Мбайт
    Продолжительность : 1 ч. 30 м.
    Режим общего битрейта : Постоянный
    Общий поток : 448 Кбит/сек

    Аудио
    Формат : AC-3
    Формат/Информация : Audio Coding 3
    Расширение режима : CM (complete main)
    Параметр Endianness формата : Big
    Продолжительность : 1 ч. 30 м.
    Вид битрейта : Постоянный
    Битрейт : 448 Кбит/сек
    Каналы : 6 каналов
    Расположение каналов : Front: L C R, Side: L R, LFE
    Частота : 48,0 КГц
    Битовая глубина : 16 бит
    Метод сжатия : С потерями
    Размер потока : 291 Мбайт (100%)

    Общее
    Полное имя : E:VideoKorabl-prizrak.2002.XviD.BDRipKorabl-prizrak.2002.AVO.rus.Ю.Живов.ac3
    Формат : AC-3
    Формат/Информация : Audio Coding 3
    Размер файла : 291 Мбайт
    Продолжительность : 1 ч. 30 м.
    Режим общего битрейта : Постоянный
    Общий поток : 448 Кбит/сек

    Аудио
    Формат : AC-3
    Формат/Информация : Audio Coding 3
    Расширение режима : CM (complete main)
    Параметр Endianness формата : Big
    Продолжительность : 1 ч. 30 м.
    Вид битрейта : Постоянный
    Битрейт : 448 Кбит/сек
    Каналы : 6 каналов
    Расположение каналов : Front: L C R, Side: L R, LFE
    Частота : 48,0 КГц
    Битовая глубина : 16 бит
    Метод сжатия : С потерями
    Размер потока : 291 Мбайт (100%)

    Общее
    Полное имя : E:VideoKorabl-prizrak.2002.XviD.BDRipKorabl-prizrak.2002.eng.SDH.srt
    Размер файла : 113 Кбайт

    Общее
    Полное имя : E:VideoKorabl-prizrak.2002.XviD.BDRipKorabl-prizrak.2002.Original.eng.ac3
    Формат : AC-3
    Формат/Информация : Audio Coding 3
    Размер файла : 291 Мбайт
    Продолжительность : 1 ч. 30 м.
    Режим общего битрейта : Постоянный
    Общий поток : 448 Кбит/сек

    Аудио
    Формат : AC-3
    Формат/Информация : Audio Coding 3
    Расширение режима : CM (complete main)
    Параметр Endianness формата : Big
    Продолжительность : 1 ч. 30 м.
    Вид битрейта : Постоянный
    Битрейт : 448 Кбит/сек
    Каналы : 6 каналов
    Расположение каналов : Front: L C R, Side: L R, LFE
    Частота : 48,0 КГц
    Битовая глубина : 16 бит
    Метод сжатия : С потерями
    Размер потока : 291 Мбайт (100%)

    Общее
    Полное имя : E:VideoKorabl-prizrak.2002.XviD.BDRipKorabl-prizrak.2002.rus.srt
    Размер файла : 105 Кбайт

    Общее
    Полное имя : E:VideoKorabl-prizrak.2002.XviD.BDRipKorabl-prizrak.2002.XviD.BDRip.avi
    Формат : AVI
    Формат/Информация : Audio Video Interleave
    Размер файла : 1,79 Гбайт
    Продолжительность : 1 ч. 30 м.
    Общий поток : 2818 Кбит/сек
    Программа кодирования : VirtualDubMod 1.5.10.2 (build 2540/release)
    Библиотека кодирования : VirtualDubMod build 2540/release

    Видео
    Идентификатор : 0
    Формат : MPEG-4 Visual
    Профиль формата : Advanced Simple@L5
    Параметр BVOP формата : 1
    Параметр QPel формата : Нет
    Параметр GMC формата : Без точки перехода
    Параметр матрицы формата : Default (H.263)
    Режим смешивания : Сжатый битовый поток
    Идентификатор кодека : XVID
    Идентификатор кодека/Подсказка : XviD
    Продолжительность : 1 ч. 30 м.
    Битрейт : 1908 Кбит/сек
    Ширина : 704 пикселя
    Высота : 400 пикселей
    Соотношение сторон : 16:9
    Частота кадров : 23,976 кадра/сек
    Цветовое пространство : YUV
    Субдискретизация насыщенности : 4:2:0
    Битовая глубина : 8 бит
    Тип развёртки : Прогрессивная
    Метод сжатия : С потерями
    Бит/(Пиксели*Кадры) : 0.283
    Размер потока : 1,21 Гбайт (68%)
    Библиотека кодирования : XviD 1.2.1 (UTC 2008-12-04)

    Аудио #1
    Идентификатор : 1
    Формат : AC-3
    Формат/Информация : Audio Coding 3
    Расширение режима : CM (complete main)
    Параметр Endianness формата : Big
    Идентификатор кодека : 2000
    Продолжительность : 1 ч. 30 м.
    Вид битрейта : Постоянный
    Битрейт : 448 Кбит/сек
    Каналы : 6 каналов
    Расположение каналов : Front: L C R, Side: L R, LFE
    Частота : 48,0 КГц
    Битовая глубина : 16 бит
    Метод сжатия : С потерями
    Размер потока : 291 Мбайт (16%)
    Выравнивание : Разделение по промежуткам
    Продолжительность промежутка : 42 мс. (1,00 видеокадр)
    Время предзагрузки промежутка : 500 мс.

    Аудио #2
    Идентификатор : 2
    Формат : AC-3
    Формат/Информация : Audio Coding 3
    Расширение режима : CM (complete main)
    Параметр Endianness формата : Big
    Идентификатор кодека : 2000
    Продолжительность : 1 ч. 30 м.
    Вид битрейта : Постоянный
    Битрейт : 448 Кбит/сек
    Каналы : 6 каналов
    Расположение каналов : Front: L C R, Side: L R, LFE
    Частота : 48,0 КГц
    Битовая глубина : 16 бит
    Метод сжатия : С потерями
    Размер потока : 291 Мбайт (16%)
    Выравнивание : Разделение по промежуткам
    Продолжительность промежутка : 42 мс. (1,00 видеокадр)
    Время предзагрузки промежутка : 500 мс.
    Скриншоты для ознакомления



    Залил: msltel
    Размер скачиваемого торрента: 2.92 GB (3137042422 Bytes)

    Корабль-призрак / Ghost Ship (2002) BDRip by msltel | D, P, A скачать через торрент бесплатно
    загрузка...
    Рейтинг →
     (голосов: 1, оценка 5/5, голосовать можно 1 раз )

    Другие торренты по теме:

  • Марриет Фредерик - Корабль-призрак, или повесть о Летучем Голландце (2011) МРЗ торрент скачать бесплатно
  • Марриет Фредерик - Корабль-призрак (2011) MP3 торрент скачать бесплатно
  • Корабли-призраки Великих озер / Ghost Ships of the Great Lakes (2011) HDTVRip-AVC от Тorrent-Хzona торрент скачать бесплатно
  • Корабль-призрак / Ghost Ship (2002) HDRip от Scarabey | D скачать через торрент бесплатно
  • Корабль-призрак / Ghost Ship (2002) BDRip 720p by msltel | D, P, A торрент скачать бесплатно
  • Корабль-призрак / Ghost Ship (2002) BDRip 1080p by msltel | D, P, A скачать через торрент бесплатно
  • Летающий корабль-призрак / Sora tobu yreisen (1969) DVDRip-AVC скачать через торрент бесплатно
  • Корабль-Призрак / Sora tobu yureisen (1969) DVDRip от MediaClub | КПК скачать через торрент бесплатно


    • Комментарии (0):

      Информация

      Информация

        Посетители, находящиеся в группе Гости, не могут оставлять комментарии в данной новости.

        ↓ Меню



        ↓ Опрос

        А Вы добавили сайт в закладки?
        Да
        Не


        Top 10 за неделю (Фильмы)