.
Авторизация | Регистрация
» » Мертвые до востребования / Pushing Daisies (2007) Blu-Ray Remux 1080p от HDClub скачать через торрент бесплатно




    Мертвые до востребования / Pushing Daisies (2007) Blu-Ray Remux 1080p от HDClub скачать через торрент бесплатно

    Опубликовал: Админ | Дата: 27-02-2015, 11:09 | Просмотров: 268



    Детально о кино
    Русское название: Мертвые до востребования
    Русское название в мировом прокате: Pushing Daisies
    Создали в: 2007
    Категория жанра: фэнтези, драма, мелодрама, комедия, детектив
    Главный режиссер: Лоуренс Триллинг / Lawrence Trilling, Адам Кэйн / Adam Kane, Питер О’Фаллон / Peter O;Fallon
    Актеры: Ли Пейс (Ned), Анна Фрил (Charlotte Chuck Charles), Чи МакБрайд (Emerson Cod), Джим Дэйл (рассказчик), Эллен Грин (Vivian Charles), Свузи Кёрц (Lily Charles), Кристин Ченоуэт (Olive Snook), Филд Кейт (Young Ned), Сай Ричардсон (Coroner), Сэмми Ханратти (Young Chuck), Стивен Рут (Dwight Dixon), Лейна Нгуйен (News Anchor)

    Сюжет фильма:
    Мальчик обнаруживает, что может оживлять одним прикосновением. Однако, этот дар как дарит, так и забирает жизни. Если в течение минуты не прикоснуться к вновь живому опять, погибает кто-то другой. Если же прикоснуться... этот живой вновь возвращается в мир мертвых.
    Мальчик вырастает и, пользуясь своим даром, раскрывает убийства: оживляет жертву на минуту, выясняет имя виновного и всё возвращает назад. Но однажды он должен выяснить, кто убил девушку, которая была его детской любовью... сможет ли он отпустить ее через минуту?
    Список серий

    01: Пилот / Pie-lette
    02: Манекен / Dummy
    03: Веселье на похоронах / The Fun in Funeral
    04: Голубь / Pigeon
    05: Подпруга / Girth
    06: Стервы / Bitches
    07: Запах Успеха / Smell of Success
    08: Сладости с горчинкой / Bitter Sweets
    09: Замороженый труп / Corpsicle

    Скрытый текст

    Релиз выполнен при поддержке chertopolokh.

    MI

    Общее
    Идентификатор : 1 (0x1)
    Полное имя : E:PUSHING.DAISIES.S01.2007.BD-REMUX.HDCLUBPushing.Daisies.S01.E09.BDRemux.Rus.Eng.HDCLUBBDMVSTREAM?0000.m2ts
    Формат : BDAV
    Формат/Информация : Blu-ray Video
    Размер файла : 4,86 Гбайт
    Продолжительность : 42 м.
    Режим общего битрейта : Переменный
    Общий поток : 16,3 Мбит/сек
    Максимальный общий битрейт : 35,5 Мбит/сек

    Видео
    Идентификатор : 4113 (0x1011)
    Идентификатор меню : 1 (0x1)
    Формат : VC-1
    Профиль формата : Advanced@L3
    Идентификатор кодека : 234
    Продолжительность : 42 м.
    Битрейт : 14,8 Мбит/сек
    Ширина : 1920 пикселей
    Высота : 1080 пикселей
    Соотношение сторон : 16:9
    Частота кадров : 23,976 кадра/сек
    Цветовое пространство : YUV
    Субдискретизация насыщенности : 4:2:0
    Битовая глубина : 8 бит
    Тип развёртки : Прогрессивная
    Метод сжатия : С потерями
    Бит/(Пиксели*Кадры) : 0.298
    Размер потока : 4,42 Гбайт (91%)

    Аудио #1
    Идентификатор : 4352 (0x1100)
    Идентификатор меню : 1 (0x1)
    Формат : AC-3
    Формат/Информация : Audio Coding 3
    Расширение режима : CM (complete main)
    Параметр Endianness формата : Big
    Идентификатор кодека : 129
    Продолжительность : 42 м.
    Вид битрейта : Постоянный
    Битрейт : 192 Кбит/сек
    Каналы : 2 канала
    Расположение каналов : Front: L R
    Частота : 48,0 КГц
    Битовая глубина : 16 бит
    Метод сжатия : С потерями
    Размер потока : 58,7 Мбайт (1%)
    Язык : Russian

    Аудио #2
    Идентификатор : 4353 (0x1101)
    Идентификатор меню : 1 (0x1)
    Формат : AC-3
    Формат/Информация : Audio Coding 3
    Расширение режима : CM (complete main)
    Параметр Endianness формата : Big
    Идентификатор кодека : 129
    Продолжительность : 42 м.
    Вид битрейта : Постоянный
    Битрейт : 640 Кбит/сек
    Каналы : 6 каналов
    Расположение каналов : Front: L C R, Side: L R, LFE
    Частота : 48,0 КГц
    Битовая глубина : 16 бит
    Метод сжатия : С потерями
    Размер потока : 196 Мбайт (4%)
    Язык : English

    Текст
    Идентификатор : 4608 (0x1200)
    Идентификатор меню : 1 (0x1)
    Формат : PGS
    Идентификатор кодека : 144
    Продолжительность : 42 м.
    Задержка видео : 2 с. 211 мс.
    Язык : English




    Снималось в: США
    Время просмотра: 9 x ~ 00:43:00
    Перевод текста: Профессиональный (двухголосый закадровый)

    Файл
    Кодек для видео: VC-1
    Качество фильма: Blu-Ray Remux 1080p
    Информация о видео: ~ 16731 kbps / 1920x1080p / 23.976 fps / 16:9 / High Profile 4.1
    Информация о звуке:
    Audio: Russian / 48 kHz, AC3, 2/0 (L,R) ch, ~192.00 kbps
    Audio: English / 48 kHz, AC3, 5/1 (L,R) ch, ~640.00 kbps
    Субтитры: английские

    Скриншоты для ознакомления


    Релиз подготовил:
    Размер скачиваемого торрента: 46.87 GB (50331186688 Bytes)

    Мертвые до востребования / Pushing Daisies (2007) Blu-Ray Remux 1080p от HDClub скачать через торрент бесплатно
    загрузка...
    Рейтинг →
     (голосов: 1, оценка 3/5, голосовать можно 1 раз )

    Другие торренты по теме:

  • Э.А. Уоллес Баджа - Египетская Книга мертвых (2003) DJVU торрент скачать бесплатно
  • Стреляй в живых и молись за мертвых / Prega il morto e ammazza il vivo (1971) DVDRip AVC от Киномагия l P торрент скачать бесплатно
  • Мертвые бросают тень / Umarli rzucaja cien (1979) DVD5 торрент скачать бесплатно
  • Мертвая Зона / The Dead Zone (2002-2007) DVDRip торрент скачать бесплатно
  • Быстрый и мертвый / The Quick and the Dead (1995) BDRip-AVC от olegek70 | D, P, A торрент скачать бесплатно
  • Девять в списке мертвых / Nine Dead (2010) HDRip-AVC от ExKinoRay торрент скачать бесплатно
  • DOA: Живой или мертвый / DOA: Dead or Alive (2006) BDRip 1080p от NoLimits-Team торрент скачать бесплатно
  • Мертвый штиль / Мертвый омут / Dead Calm (1989) BDRip 1080p | P, D, A торрент скачать бесплатно


    • Комментарии (0):

      Информация

      Информация

        Посетители, находящиеся в группе Гости, не могут оставлять комментарии в данной новости.

        ↓ Меню



        ↓ Опрос

        А Вы добавили сайт в закладки?
        Да
        Не


        Top 10 за неделю (Фильмы)