.
Авторизация | Регистрация
» » Риддик / Riddick (2013) WEB-DLRip-AVC | iTunes торрент скачать бесплатно




    Риддик / Riddick (2013) WEB-DLRip-AVC | iTunes торрент скачать бесплатно

    Опубликовал: Админ | Дата: 27-02-2015, 11:09 | Просмотров: 255



    Детально о кино
    Русское название: Риддик
    Русское название в мировом прокате: Riddick
    Создали в: 2013
    Категория жанра: Фантастика, боевик, триллер
    Снималось в: США, One Race Productions, Radar Pictures Inc.
    Главный режиссер: Дэвид Туи
    Актеры: Вин Дизель, Хорди Молья, Мэтью Нэйбл, Кэти Сакхофф, Дэйв Батиста, Букем Вудбайн, Рауль Трухильо, Конрад Пла, Дэнни Бланко, Карл Урбан, Ноа Дэнби, Нил Напье, Нолан Фанк, Андреас Апергис, Кери Хилсон, Шарли Мари Дюпон, Ян Герсте, Антуанетта Никпрелаж, Александра Соколовская

    Сюжет фильма: Преданный своими и брошенный умирать на пустынной планете, Риддик сражается с хищниками за жизнь и становится сильнее и опаснее себя прежнего. Открывшие на него охоту галактические наемники оказываются пешками в грандиозном плане отмщения. С врагами, возникающими на его пути тогда, когда это нужно самому Риддику, он начинает поход во имя мести, чтобы в конечном счете вернуться на родную Фурию и спасти ее от уничтожения.



    Снималось в: США / Universal Pictures, Radar Pictures, One Race Productions
    Время просмотра: 01:58:30
    Тип перевода: Дублированное iTunes

    Файл
    Тип видео: MKV
    Качество фильма: WEB-DLRip-AVC
    Информация о видео: 1858 kb/s, 944x392
    Информация о звуке: Russian / English: AC3, 384 kb/s (6 ch)





    MI

    Format : Matroska
    Format version : Version 4 / Version 2
    File size : 2.18 GiB
    Duration : 1h 58mn
    Overall bit rate : 2 626 Kbps
    Encoded date : UTC 2013-12-17 17:41:27
    Writing application : mkvmerge v6.1.0 (;Old Devil;) built on Mar 4 2013 09:10:42
    Writing library : libebml v1.3.0 libmatroska v1.4.0

    Video
    ID : 1
    Format : AVC
    Format/Info : Advanced Video Codec
    Format profile : High@L4.1
    Format settings, CABAC : Yes
    Format settings, ReFrames : 11 frames
    Codec ID : V_MPEG4/ISO/AVC
    Duration : 1h 58mn
    Bit rate : 1 858 Kbps
    Width : 944 pixels
    Height : 392 pixels
    Display aspect ratio : 2.40:1
    Frame rate : 23.976 fps
    Color space : YUV
    Chroma subsampling : 4:2:0
    Bit depth : 8 bits
    Scan type : Progressive
    Bits/(Pixel*Frame) : 0.209
    Stream size : 1.50 GiB (69%)
    Writing library : x264 core 130 r2273 b3065e6
    Encoding settings : cabac=1 / ref=11 / deblock=1:-2:-2 / analyse=0x3:0x133 / me=umh / subme=11 / psy=1 / psy_rd=1.00:0.20 / mixed_ref=1 / me_range=32 / chroma_me=1 / trellis=2 / 8x8dct=1 / cqm=0 / deadzone=21,11 / fast_pskip=1 / chroma_qp_offset=-3 / threads=6 / lookahead_threads=1 / sliced_threads=0 / nr=0 / decimate=0 / interlaced=0 / bluray_compat=0 / constrained_intra=0 / bframes=8 / b_pyramid=2 / b_adapt=2 / b_bias=0 / direct=3 / weightb=1 / open_gop=0 / weightp=2 / keyint=250 / keyint_min=23 / scenecut=40 / intra_refresh=0 / rc=2pass / mbtree=0 / bitrate=1858 / ratetol=1.0 / qcomp=0.60 / qpmin=0 / qpmax=69 / qpstep=4 / cplxblur=20.0 / qblur=0.5 / ip_ratio=1.40 / pb_ratio=1.30 / aq=1:1.00
    Language : Russian
    Default : Yes
    Forced : No

    Audio #1
    ID : 2
    Format : AC-3
    Format/Info : Audio Coding 3
    Mode extension : CM (complete main)
    Format settings, Endianness : Big
    Codec ID : A_AC3
    Duration : 1h 58mn
    Bit rate mode : Constant
    Bit rate : 384 Kbps
    Channel(s) : 6 channels
    Channel positions : Front: L C R, Side: L R, LFE
    Sampling rate : 48.0 KHz
    Bit depth : 16 bits
    Compression mode : Lossy
    Stream size : 326 MiB (15%)
    Language : Russian
    Default : Yes
    Forced : No

    Audio #2
    ID : 3
    Format : AC-3
    Format/Info : Audio Coding 3
    Mode extension : CM (complete main)
    Format settings, Endianness : Big
    Codec ID : A_AC3
    Duration : 1h 58mn
    Bit rate mode : Constant
    Bit rate : 384 Kbps
    Channel(s) : 6 channels
    Channel positions : Front: L C R, Side: L R, LFE
    Sampling rate : 48.0 KHz
    Bit depth : 16 bits
    Compression mode : Lossy
    Stream size : 326 MiB (15%)
    Language : English
    Default : No
    Forced : No

    Menu
    00:00:00.000 : en:1
    00:05:37.000 : en:2
    00:12:10.000 : en:3
    00:18:20.000 : en:4
    00:22:05.000 : en:5
    00:26:20.000 : en:6
    00:32:12.000 : en:7
    00:38:29.000 : en:8
    00:42:49.000 : en:9
    00:50:28.000 : en:10
    00:55:25.000 : en:11
    01:01:38.000 : en:12
    01:09:32.000 : en:13
    01:14:07.000 : en:14
    01:20:57.000 : en:15
    01:25:35.000 : en:16
    01:33:41.000 : en:17
    01:39:41.000 : en:18
    01:47:55.000 : en:19
    Скриншоты для ознакомления

    Размер скачиваемого торрента: 2.18 GB (2337425815 Bytes)

    Риддик / Riddick (2013) WEB-DLRip-AVC | iTunes торрент скачать бесплатно
    загрузка...
    Рейтинг →
     (голосов: 1, оценка 3/5, голосовать можно 1 раз )

    Другие торренты по теме:

  • Хроники Риддика / The Chronicles of Riddick (2004) HDRip от Scarabey | D | Театральная версия торрент скачать бесплатно
  • Хроники Риддика: Тёмная ярость / Chronicles of Riddick: Dark Fury (2004) DVD5 от Youtracker | P | Лицензия торрент скачать бесплатно
  • OST - Хроники Риддика / The Chronicles of Riddick (2004) MP3 торрент скачать бесплатно
  • Риддик / Riddick (2013) HD-720p | D | Трейлер торрент скачать бесплатно
  • Риддик / Riddick (2013) CAMRip торрент скачать бесплатно
  • Риддик / Riddick (2013) CAMRip *PROPER* торрент скачать бесплатно
  • Хроники Риддика / The Chronicles of Riddick (2004) BDRip 720p | Театральная версия торрент скачать бесплатно
  • Риддик / Riddic (2013) CAMRip *PROPER* скачать через торрент бесплатно


    • Комментарии (0):

      Информация

      Информация

        Посетители, находящиеся в группе Гости, не могут оставлять комментарии в данной новости.

        ↓ Меню



        ↓ Опрос

        А Вы добавили сайт в закладки?
        Да
        Не


        Top 10 за неделю (Фильмы)