.
Авторизация | Регистрация
Хочешь лучшие торренты? Добавь свой email!
Добавить
» » Звездный крейсер Найденион / Nydenion - Krieg der Kolonien (2010) HDRip от New-Team | P торрент скачать бесплатно




    Звездный крейсер Найденион / Nydenion - Krieg der Kolonien (2010) HDRip от New-Team | P торрент скачать бесплатно

    Опубликовал: Админ | Дата: 27-02-2015, 11:09 | Просмотров: 278


    Создали в: 2010
    Снималось в: Германия
    Киностудия: Hessen-Invest Film, Magna Mana FX, Magna Mana Production
    Категория жанра: фантастика
    Время просмотра: 01:30:04

    Перевод текста: Профессиональный (многоголосый закадровый) лицензия
    Субтитры: нет
    Оригинальная аудиодорожка: нет

    Главный режиссер: Джек Мойк / Jack Moik

    Актеры: Андреас Аренс Caspar Arnhold Michael Arnold Mirjam Barner Bj?rn Bechstein Boris Belkine Birgit Blaufuss Rafaela Bonato Кристина Даль Кэнтон Стефани Даль Кэнтон...

    Сюжет: События разворачиваются в далеком будущем. Здесь идет бесконечная война между множеством колоний, которые давно перестали безоговорочно выполнять приказы метрополии и превратились в могущественные государства. Ожесточенное противостояние между ними длится уже более 50 лет, а количество жертв приблизилось к миллиарду. В этом аду летчиком-истребителем работает Рик Уолкер, которому поручают сверхсекретное задание: доставить некую женщину к месту, где состоится очередная серия переговоров о прекращении военных действий…




    Исходник: BD 1080p
    Тип релиза: HDRip
    Контейнер: AVI

    Информация о видео: 720x400 (16:9), 25 fps, XviD ~ 1965 kbps avg, 0.273 bit/pixel
    Информация о звуке: 48 kHz, AC3, 6 ch, 448.00 kbps Русский

    Раздача от:
    MediaInfo

    Общее
    Полное имя : Zvezdnyj.krejser.Najdenion.2010.HDRip.avi
    Формат : AVI
    Формат/Информация : Audio Video Interleave
    Размер файла : 1,52 Гбайт
    Продолжительность : 1 ч. 30 м.
    Общий поток : 2422 Кбит/сек
    Программа кодирования : VirtualDubModRus 1.5.10.2 (build 2542/release)
    Библиотека кодирования : VirtualDubMod build 2542/release

    Видео
    Идентификатор : 0
    Формат : MPEG-4 Visual
    Профиль формата : Advanced Simple@L5
    Параметр BVOP формата : 2
    Параметр QPel формата : Нет
    Параметр GMC формата : Без точки перехода
    Параметр матрицы формата : Default (H.263)
    Идентификатор кодека : XVID
    Идентификатор кодека/Подсказка : XviD
    Продолжительность : 1 ч. 30 м.
    Битрейт : 1965 Кбит/сек
    Ширина : 720 пикселей
    Высота : 400 пикселей
    Соотношение сторон : 16:9
    Частота кадров : 25,000 кадров/сек
    Цветовое пространство : YUV
    Субдискретизация насыщенности : 4:2:0
    Битовая глубина : 8 бит
    Тип развёртки : Прогрессивная
    Метод сжатия : С потерями
    Бит/(Пиксели*Кадры) : 0.273
    Размер потока : 1,24 Гбайт (81%)
    Библиотека кодирования : XviD 63

    Аудио
    Идентификатор : 1
    Формат : AC-3
    Формат/Информация : Audio Coding 3
    Расширение режима : CM (complete main)
    Идентификатор кодека : 2000
    Продолжительность : 1 ч. 30 м.
    Вид битрейта : Постоянный
    Битрейт : 448 Кбит/сек
    Каналы : 6 каналов
    Расположение каналов : Front: L C R, Side: L R, LFE
    Частота : 48,0 КГц
    Битовая глубина : 16 бит
    Метод сжатия : С потерями
    Размер потока : 289 Мбайт (18%)
    Выравнивание : Разделение по промежуткам
    Продолжительность промежутка : 40 мс. (1,00 видеокадр)
    Время предзагрузки промежутка : 500 мс

    Скриншоты для ознакомления



    Залил: AVPStudio
    Размер скачиваемого торрента: 1.52 GB (1636530176 Bytes)

    Звездный крейсер Найденион / Nydenion - Krieg der Kolonien (2010) HDRip от New-Team | P торрент скачать бесплатно
    загрузка...
    Рейтинг →
     (голосов: 1, оценка 4/5, голосовать можно 1 раз )

    Другие торренты по теме:

  • Звездный Крейсер Галактика: Кровь и Хром / Battlestar Galactica: Blood Chrome (2012) HDRip-AVC
  • Звездный крейсер Галактика: План / The Plan (2009) BDRip-AVC от rondik | P
  • OST - Звездный крейсер Галактика: Кровь и хром / Battlestar Galactica: Blood Chrome (2013) MP3
  • Звездный крейсер Галактика / Battlestar Galactica (2003-2012) BDRip 1080p | LostFilm
  • Звездный крейсер: Апокалипсис (2014)


    • Комментарии (0):

      Информация

      Информация

        Посетители, находящиеся в группе Гости, не могут оставлять комментарии в данной новости.

        ↓ Меню



        ↓ Опрос

        А Вы добавили сайт в закладки?
        Да
        Не


        Top 10 за месяц (Фильмы)