.
Авторизация | Регистрация
Хочешь лучшие торренты? Добавь свой email!
Добавить
» » Ромео и Джульетта / Romeo and Juliet (2013) BDRip 720p | Лицензия скачать через торрент бесплатно




    Ромео и Джульетта / Romeo and Juliet (2013) BDRip 720p | Лицензия скачать через торрент бесплатно

    Опубликовал: Админ | Дата: 27-02-2015, 11:09 | Просмотров: 247



    Детально о кино
    Русское название: Ромео и Джульетта
    Русское название в мировом прокате: Romeo and Juliet
    Создали в: 2013
    Категория жанра: Драма, мелодрама
    Снималось в: Великобритания, Италия, Швейцария, Amber Entertainment, Echo Lake Productions (I), Indiana Production Company
    Главный режиссер: Карло Карлей
    Актеры: Дуглас Бут, Хейли Стайнфелд, Дэмиэн Льюис, Коди Смит-МакФи, Эд Вествик, Пол Джаматти, Томас Арана, Наташа МакЭлхоун, Стеллан Скарсгард, Лесли Мэнвилл

    Сюжет фильма: Верона. Эпоха Раннего Возрождения. Юноша и девушка из враждующих семей влюбляются друг в друга. Рок не дает им быть вместе. Лишь смерть на пике запретной страсти помогает Ромео и Джульетте спасти свою любовь.




    Файл
    Качество фильма: BDRip (720p)
    Информация о видео: MPEG-4 AVC, 4200 Кбит/с, 1280x534
    Информация о звуке: Русский (AC3, 6 ch, 640 Кбит/с), (DTS, 6 ch, 1510 Кбит/с)
    Размер скачиваемого торрента: 5.03 ГБ
    Время просмотра: 01:53:25
    Перевод текста: Дублированный лицензия

    MI
    Общее
    Уникальный идентификатор : 197088882844740723687750471223848981781 (0x9445F0287A788A17B0BDD30ECEE7D515)
    Полное имя : D:Romeo_and_Juliet_2013_720p.CMEGRoup.mkv
    Формат : Matroska
    Версия формата : Version 2
    Размер файла : 5,03 Гбайт
    Продолжительность : 1 ч. 53 м.
    Общий поток : 6350 Кбит/сек
    Название фильма : CMEGRoup
    Дата кодирования : UTC 2013-12-18 10:46:56
    Программа кодирования : mkvmerge v6.3.0 (;You can;t stop me!;) built on Jun 28 2013 20:09:41
    Библиотека кодирования : libebml v1.3.0 libmatroska v1.4.0

    Видео
    Идентификатор : 1
    Формат : AVC
    Формат/Информация : Advanced Video Codec
    Профиль формата : High@L4.1
    Параметр CABAC формата : Да
    Параметр ReFrames формата : 9 кадров
    Идентификатор кодека : V_MPEG4/ISO/AVC
    Продолжительность : 1 ч. 53 м.
    Битрейт : 4200 Кбит/сек
    Ширина : 1280 пикселей
    Высота : 534 пикселя
    Соотношение сторон : 2,40:1
    Режим частоты кадров : Постоянный
    Частота кадров : 25,000 кадров/сек
    Цветовое пространство : YUV
    Субдискретизация насыщенности : 4:2:0
    Битовая глубина : 8 бит
    Тип развёртки : Прогрессивная
    Бит/(Пиксели*Кадры) : 0.246
    Размер потока : 3,23 Гбайт (64%)
    Библиотека кодирования : x264 core 138 r2358 9e941d1
    Настройки программы : cabac=1 / ref=9 / deblock=1:-3:-3 / analyse=0x3:0x113 / me=umh / subme=10 / psy=1 / psy_rd=1.00:0.00 / mixed_ref=1 / me_range=32 / chroma_me=1 / trellis=2 / 8x8dct=1 / cqm=0 / deadzone=21,11 / fast_pskip=1 / chroma_qp_offset=-2 / threads=12 / lookahead_threads=1 / sliced_threads=0 / nr=0 / decimate=1 / interlaced=0 / bluray_compat=0 / constrained_intra=0 / bframes=5 / b_pyramid=2 / b_adapt=1 / b_bias=0 / direct=2 / weightb=1 / open_gop=0 / weightp=2 / keyint=250 / keyint_min=25 / scenecut=40 / intra_refresh=0 / rc_lookahead=40 / rc=2pass / mbtree=1 / bitrate=4200 / ratetol=1.0 / qcomp=0.60 / qpmin=10 / qpmax=51 / qpstep=4 / cplxblur=20.0 / qblur=0.5 / vbv_maxrate=62500 / vbv_bufsize=78125 / nal_hrd=none / ip_ratio=1.40 / aq=1:1.00 / zones=163482,170124,q=40
    Язык : English
    Default : Да
    Forced : Нет

    Аудио #1
    Идентификатор : 2
    Формат : DTS
    Формат/Информация : Digital Theater Systems
    Режим : 16
    Параметр Endianness формата : Big
    Идентификатор кодека : A_DTS
    Продолжительность : 1 ч. 53 м.
    Вид битрейта : Постоянный
    Битрейт : 1509 Кбит/сек
    Каналы : 6 каналов
    Расположение каналов : Front: L C R, Side: L R, LFE
    Частота : 48,0 КГц
    Битовая глубина : 16 бит
    Метод сжатия : С потерями
    Размер потока : 1,20 Гбайт (24%)
    Язык : Russian
    Default : Да
    Forced : Нет

    Аудио #2
    Идентификатор : 3
    Формат : AC-3
    Формат/Информация : Audio Coding 3
    Расширение режима : CM (complete main)
    Параметр Endianness формата : Big
    Идентификатор кодека : A_AC3
    Продолжительность : 1 ч. 53 м.
    Вид битрейта : Постоянный
    Битрейт : 640 Кбит/сек
    Каналы : 6 каналов
    Расположение каналов : Front: L C R, Side: L R, LFE
    Частота : 48,0 КГц
    Битовая глубина : 16 бит
    Метод сжатия : С потерями
    Размер потока : 519 Мбайт (10%)
    Язык : Russian
    Default : Нет
    Forced : Нет

    Меню
    00:00:00.000 : en:00:00:00.000
    00:06:36.520 : en:00:06:36.520
    00:12:34.080 : en:00:12:34.080
    00:19:05.680 : en:00:19:05.680
    00:31:08.840 : en:00:31:08.840
    00:42:14.600 : en:00:42:14.600
    00:51:13.560 : en:00:51:13.560
    01:00:00.600 : en:01:00:00.600
    01:11:12.000 : en:01:11:12.000
    01:17:52.760 : en:01:17:52.760
    01:23:32.920 : en:01:23:32.920
    01:29:19.640 : en:01:29:19.640
    01:34:07.320 : en:01:34:07.320
    01:38:49.520 : en:01:38:49.520
    01:45:49.480 : en:01:45:49.480

    Скриншоты для ознакомления






    Релиз подготовил:
    Размер скачиваемого торрента: 5.03 GB (5401632482 Bytes)

    Ромео и Джульетта / Romeo and Juliet (2013) BDRip 720p | Лицензия скачать через торрент бесплатно
    загрузка...
    Рейтинг →
     (голосов: 1, оценка 5/5, голосовать можно 1 раз )

    Другие торренты по теме:

  • Ромео и Юлия / Romeo i Julcia (1933) TVRip
  • Ромео и Джульетта / Romeo and Juliet (1968) BDRip от HQ-ViDEO
  • Ромео и Джульетта / Romeo and Juliet (1968) BDRip от HQCLUB
  • Ромео и Джульетта / Romeo and Juliet: A Love Song (2013) DVD5 от Youtracker | Sub | сжатый
  • Ромео и Джульетта / Romeo and Juliet: A Love Song (2013) DVDRip-AVC от Youtracker | Sub | лицензия
  • Ромео и Джульетта / Romeo and Juliet: A Love Song (2013) DVD9 R5 от Youtracker | Sub | лицензия
  • Ромео и Джульетта / Romeo and Juliet: A Love Song (2013) DVDRip от Youtracker | Sub | лицензия
  • Ромео и Джульетта в снегу / Romeo und Julia im Schnee (1920) TVRip | Sub


    • Комментарии (0):

      Информация

      Информация

        Посетители, находящиеся в группе Гости, не могут оставлять комментарии в данной новости.

        ↓ Меню



        ↓ Опрос

        А Вы добавили сайт в закладки?
        Да
        Не


        Top 10 за месяц (Фильмы)