.
Авторизация | Регистрация
» » РЭД 2 / Red 2 (2013) BDRip 1080p | Лицензия торрент скачать бесплатно




    РЭД 2 / Red 2 (2013) BDRip 1080p | Лицензия торрент скачать бесплатно

    Опубликовал: Админ | Дата: 27-02-2015, 11:09 | Просмотров: 348



    Детально о кино
    Русское название: Рэд 2
    Русское название в мировом прокате: Red 2
    Создали в: 2013
    Категория жанра: Боевик, комедия, криминал
    Снималось в: США, Summit Entertainment, Di Bonaventura Pictures
    Главный режиссер: Дин Паризо
    Актеры: Брюс Уиллис, Джон Малкович, Мэри-Луиз Паркер, Бён Хон Ли, Хелен Миррен, Энтони Хопкинс, Кэтрин Зета-Джонс, Дэвид Тьюлис, Нил МакДонаф, Ли Асквит-Коу

    Сюжет фильма: Компашка пенсионеров снова в сборе! Стареющий киллер решает устроить проблемы своему бывшему боссу, так как тот стал угрозой для его семьи, не подозревающей о роде деятельности главы семейства. Не все идет по плану и остается только один выход – бегство с сыном...



    Файл
    Качество фильма: BDRip (1080p)
    Информация о видео: MPEG-4 AVC, 12.2 Мбит/с, 1920x800
    Информация о звуке: Русский, английский (DTS, 6 ch, 1510 Кбит/с)
    Размер скачиваемого торрента: 11.39 ГБ
    Время просмотра: 01:55:48
    Перевод текста: Дублированный лицензия
    Субтитры: Русские, английские

    Семпл
    MI
    Общее
    Уникальный идентификатор : 237807895796723948550862435660773937961 (0xB2E8227F2688B0E7BA47882ADE675329)
    Полное имя : D:Red.2.2013.1080p.BluRay.DTS.mkv
    Формат : Matroska
    Версия формата : Version 2
    Размер файла : 12,3 Гбайт
    Продолжительность : 1 ч. 55 м.
    Общий поток : 15,2 Мбит/сек
    Дата кодирования : UTC 2013-12-19 08:14:00
    Программа кодирования : mkvmerge v6.3.0 (;You can;t stop me!;) built on Jun 28 2013 20:09:41
    Библиотека кодирования : libebml v1.3.0 libmatroska v1.4.0

    Видео
    Идентификатор : 1
    Формат : AVC
    Формат/Информация : Advanced Video Codec
    Профиль формата : High@L4.1
    Параметр CABAC формата : Да
    Параметр ReFrames формата : 5 кадров
    Идентификатор кодека : V_MPEG4/ISO/AVC
    Продолжительность : 1 ч. 55 м.
    Битрейт : 12,2 Мбит/сек
    Ширина : 1920 пикселей
    Высота : 800 пикселей
    Соотношение сторон : 2,40:1
    Режим частоты кадров : Постоянный
    Частота кадров : 23,976 кадра/сек
    Цветовое пространство : YUV
    Субдискретизация насыщенности : 4:2:0
    Битовая глубина : 8 бит
    Тип развёртки : Прогрессивная
    Бит/(Пиксели*Кадры) : 0.331
    Размер потока : 9,62 Гбайт (78%)
    Библиотека кодирования : x264 core 133 r2334 704 50 a7549b7 tMod 8-bit@4:2:0 X86_64
    Настройки программы : cabac=1 / ref=5 / deblock=1:-3:-3 / analyse=0x3:0x113 / me=umh / subme=10 / psy=1 / fade_compensate=0.00 / psy_rd=1.05:0.01 / mixed_ref=1 / me_range=32 / chroma_me=1 / trellis=2 / 8x8dct=1 / cqm=0 / deadzone=21,11 / fast_pskip=1 / chroma_qp_offset=-3 / threads=16 / lookahead_threads=1 / sliced_threads=0 / nr=0 / decimate=1 / interlaced=0 / bluray_compat=0 / constrained_intra=0 / fgo=0 / bframes=6 / b_pyramid=2 / b_adapt=1 / b_bias=0 / direct=3 / weightb=1 / open_gop=0 / weightp=2 / keyint=240 / keyint_min=23 / scenecut=40 / intra_refresh=0 / rc_lookahead=50 / rc=2pass / mbtree=1 / bitrate=12200 / ratetol=1.0 / qcomp=0.60 / qpmin=0 / qpmax=69 / qpstep=4 / cplxblur=20.0 / qblur=0.5 / vbv_maxrate=50000 / vbv_bufsize=50000 / nal_hrd=none / ip_ratio=1.40 / aq=4:0.90 / aq-sensitivity=10.00 / aq-factor=1.00:1.00:1.00 / aq2=0 / aq3=0
    Язык : English
    Default : Да
    Forced : Нет

    Аудио #1
    Идентификатор : 2
    Формат : DTS
    Формат/Информация : Digital Theater Systems
    Режим : 16
    Параметр Endianness формата : Big
    Идентификатор кодека : A_DTS
    Продолжительность : 1 ч. 55 м.
    Вид битрейта : Постоянный
    Битрейт : 1509 Кбит/сек
    Каналы : 6 каналов
    Расположение каналов : Front: L C R, Side: L R, LFE
    Частота : 48,0 КГц
    Битовая глубина : 16 бит
    Метод сжатия : С потерями
    Размер потока : 1,22 Гбайт (10%)
    Язык : Russian
    Default : Да
    Forced : Нет

    Аудио #2
    Идентификатор : 3
    Формат : DTS
    Формат/Информация : Digital Theater Systems
    Режим : 16
    Параметр Endianness формата : Big
    Идентификатор кодека : A_DTS
    Продолжительность : 1 ч. 55 м.
    Вид битрейта : Постоянный
    Битрейт : 1509 Кбит/сек
    Каналы : 6 каналов
    Расположение каналов : Front: L C R, Side: L R, LFE
    Частота : 48,0 КГц
    Битовая глубина : 24 бит
    Метод сжатия : С потерями
    Размер потока : 1,22 Гбайт (10%)
    Заголовок : DTS
    Язык : English
    Default : Нет
    Forced : Нет

    Текст #1
    Идентификатор : 4
    Формат : UTF-8
    Идентификатор кодека : S_TEXT/UTF8
    Идентификатор кодека/Информация : UTF-8 Plain Text
    Язык : Russian
    Default : Нет
    Forced : Нет

    Текст #2
    Идентификатор : 5
    Формат : UTF-8
    Идентификатор кодека : S_TEXT/UTF8
    Идентификатор кодека/Информация : UTF-8 Plain Text
    Заголовок : English
    Язык : English
    Default : Нет
    Forced : Нет

    Меню
    00:00:00.000 : en:00:00:00.000
    00:08:31.094 : en:00:08:31.094
    00:15:02.193 : en:00:15:02.193
    00:21:30.497 : en:00:21:30.497
    00:28:33.337 : en:00:28:33.337
    00:39:50.888 : en:00:39:50.888
    00:47:24.425 : en:00:47:24.425
    00:54:32.561 : en:00:54:32.561
    01:00:21.326 : en:01:00:21.326
    01:07:47.021 : en:01:07:47.021
    01:11:48.804 : en:01:11:48.804
    01:18:52.770 : en:01:18:52.770
    01:23:16.283 : en:01:23:16.283
    01:28:01.067 : en:01:28:01.067
    01:35:52.455 : en:01:35:52.455
    01:41:44.306 : en:01:41:44.306
    01:45:24.026 : en:01:45:24.026
    01:46:59.913 : en:01:46:59.913

    Скриншоты для ознакомления



    Размер скачиваемого торрента: 12.30 GB (13212320613 Bytes)

    РЭД 2 / Red 2 (2013) BDRip 1080p | Лицензия торрент скачать бесплатно
    загрузка...
    Рейтинг →
     (голосов: 1, оценка 4/5, голосовать можно 1 раз )

    Другие торренты по теме:

  • РЭД / Red (2010) BDRip-AVC | iPad торрент скачать бесплатно
  • OST - РЭД / RED - Soundtrack (2010) MP3 торрент скачать бесплатно
  • РЭД 2 / RED 2 (2013) HD Трейлер торрент скачать бесплатно
  • РЭД 2 / Red 2 (2013) TS от INTERCINEMA торрент скачать бесплатно
  • РЭД 2 / Red 2 (2013) TS PROPER торрент скачать бесплатно
  • OST - РЭД 2 / RED 2 (2013) MP3 торрент скачать бесплатно
  • РЭД 2 / Red 2 (2013) DVDRip от Один 777 | Звук c TS скачать через торрент бесплатно
  • РЭД 2 / Red 2 (2013) DVDRip | Звук c TS скачать через торрент бесплатно


    • Комментарии (0):

      Информация

      Информация

        Посетители, находящиеся в группе Гости, не могут оставлять комментарии в данной новости.

        ↓ Меню



        ↓ Опрос

        А Вы добавили сайт в закладки?
        Да
        Не


        Top 10 за неделю (Фильмы)