.
Авторизация | Регистрация
» » Бомба (2013) DVDRip от New-Team | лицензия торрент скачать бесплатно




    Бомба (2013) DVDRip от New-Team | лицензия торрент скачать бесплатно

    Опубликовал: Админ | Дата: 27-02-2015, 11:09 | Просмотров: 299



    Снималось в: Украина / Star Media
    Категория жанра: боевик, история, драма
    Создали в: 2013
    Время просмотра: 8 серий ~ 44 мин.

    Перевод текста: не требуется
    Субтитры подготовлены: нет
    Оригинальная аудиодорожка: русский

    Главный режиссер: Олег Фесенко

    Актеры: Алексей Бардуков, Ольга Арнтгольц, Ольга Сутулова, Андрей Панин, Анатолий Кот, Олег Карпенко, Ирина Крутик, Антон Соколов, Александр Денисенко, Андрей Дебрин...

    Сюжет: 1941 год. Жизнь студента физмеха Ленинградского индустриального института круто развернулась за один день, перед самой весенней сессией. Иван Гучков попал на карандаш майору Лобанову — начальнику отдела Разведывательного управления Ленинградского военного округа. Несколько месяцев спустя в советское ГРУ поступают сведения, что в США полным ходом идет секретная разработка мощнейшего атомного боеприпаса.
    Советская разведка принимает решение завербовать Ивана в Неваду на объект Х — завод по производству обогащенного урана. Чтобы кандидатура Гучкова не вызывала подозрений, ему меняют не только имя и внешность, но и биографию. Иван перевоплощается в пропавшего без вести курсанта-морпеха Стенли Либера и теперь, будучи объявлен выжившим, он должен жениться на невесте Либера Шейле. Девушка самоотверженно делит с Иваном все его невзгоды и даже решает отправиться с ним в Неваду. Постепенно Иван забывает о собственной невесте Лике, оставшейся в Советском Союзе, да и неизвестно выжила ли она в блокадном Ленинграде.
    Но жизнь разведчика непредсказуема: Шейлу, а затем Ивана арестовывают и депортируют в Советский Союз. Там Гучкову придется пройти все круги ада, прежде чем приступить к поискам тех, кто ему дорог и того, что ему нужно.



    Качество фильма: DVDRip (DVD9 R5)
    Тип видео: AVI

    Информация о видео: 720x400 (16:9), 25.000 fps, XViD ~ 1800 kbps avg, 0.250 bit/pixel
    Информация о звуке: 48 kHz, АС3 2 ch, 128 kbps, русский

    Раздача от:
    MediaInfo

    Общее
    Полное имя : Bomba.2013.O.DVDRip_New-Team_by_avproh1.avi
    Формат : AVI
    Формат/Информация : Audio Video Interleave
    Размер файла : 615 Мбайт
    Продолжительность : 44 м.
    Общий поток : 1938 Кбит/сек
    Программа кодирования : VirtualDubMod 1.5.10.3 | www.virtualdub-fr.org || (build 2550/release)
    Библиотека кодирования : VirtualDubMod build 2550/release

    Видео
    Идентификатор : 0
    Формат : MPEG-4 Visual
    Профиль формата : Advanced Simple@L5
    Параметр BVOP формата : 1
    Параметр QPel формата : Нет
    Параметр GMC формата : Без точки перехода
    Параметр матрицы формата : Выборочная
    Идентификатор кодека : XVID
    Идентификатор кодека/Подсказка : XviD
    Продолжительность : 44 м.
    Битрейт : 1801 Кбит/сек
    Ширина : 720 пикселей
    Высота : 400 пикселей
    Соотношение сторон : 16:9
    Частота кадров : 25,000 кадров/сек
    Цветовое пространство : YUV
    Субдискретизация насыщенности : 4:2:0
    Битовая глубина : 8 бит
    Тип развёртки : Прогрессивная
    Метод сжатия : С потерями
    Бит/(Пиксели*Кадры) : 0.250
    Размер потока : 571 Мбайт (93%)
    Библиотека кодирования : XviD 73

    Аудио
    Идентификатор : 1
    Формат : AC-3
    Формат/Информация : Audio Coding 3
    Расширение режима : CM (complete main)
    Параметр Endianness формата : Big
    Идентификатор кодека : 2000
    Продолжительность : 44 м.
    Вид битрейта : Постоянный
    Битрейт : 128 Кбит/сек
    Каналы : 2 канала
    Расположение каналов : Front: L R
    Частота : 48,0 КГц
    Битовая глубина : 16 бит
    Метод сжатия : С потерями
    Размер потока : 40,6 Мбайт (7%)
    Выравнивание : Разделение по промежуткам
    Продолжительность промежутка : 40 мс. (1,00 видеокадр)
    Время предзагрузки промежутка : 500 мс.

    Скриншоты для ознакомления:



    Сравнение:

    http://alt.rutor.org/torrent/320943

    http://screenshotcomparison.com/comparison/53469

    Залил: avproh
    Размер скачиваемого торрента: 4.74 GB (5087361024 Bytes)

    Бомба (2013) DVDRip от New-Team | лицензия торрент скачать бесплатно
    загрузка...
    Рейтинг →
     (голосов: 1, оценка 3/5, голосовать можно 1 раз )

    Другие торренты по теме:

  • Иран: нефть и бомба. Фильм Леонида Млечина (2013) SATRip торрент скачать бесплатно


    • Комментарии (0):

      Информация

      Информация

        Посетители, находящиеся в группе Гости, не могут оставлять комментарии в данной новости.

        ↓ Меню



        ↓ Опрос

        А Вы добавили сайт в закладки?
        Да
        Не


        Top 10 за неделю (Фильмы)