.
Авторизация | Регистрация
Хочешь лучшие торренты? Добавь свой email!
Добавить
» » Юлия Икс / Julia X (2011) BDRip 720p | P скачать через торрент бесплатно




    Юлия Икс / Julia X (2011) BDRip 720p | P скачать через торрент бесплатно

    Опубликовал: Админ | Дата: 27-02-2015, 11:09 | Просмотров: 313



    Детально о кино
    Русское название: Юлия Икс
    Русское название в мировом прокате: Julia X
    Создали в: 2011
    Категория жанра: триллер, ужасы
    Главный режиссер: П.Дж. Петтьетте
    Актеры: Валери Эзлинн, Кевин Сорбо, Алисия Ли Уиллис, Джоэль Мур, Винг Реймз, Саксон Шарбино, Грегг Браззел, Мэг Рэйнс

    Сюжет фильма: Неуловимый серийный маньяк орудует в городе, знакомится со своими будущими жертвами через интернет. После встречается, похищает, пытает, клеймит их по алфату, убивает и избавляется от тел разным способом, при этом постоянно слушая в плеере любимого исполнителя. И вот она - очередная жертва, все как обычно: знакомство, похищение, небольшие пытки, клеймо, но... Но новенькая девочка оказалась не такой уж простушкой и умудряется сбежать от него, при это не раз побив его и давая постоянно отпор. Так кто же она жертва или... ?



    Снималось в: США / Julia X
    Время просмотра: 01:32:00
    Тип перевода: Профессиональное (многоголосое)

    Файл
    Тип видео: MKV
    Качество фильма: BDRip 720p
    Информация о видео: 6037 kb/s, 1280x720
    Информация о звуке: Russian: AC3, 192 kb/s (2 ch) / English: DTS, 755 kb/s (6 ch)





    MI

    Format : Matroska
    Format version : Version 4 / Version 2
    File size : 4.49 GiB
    Duration : 1h 32mn
    Overall bit rate : 6 980 Kbps
    Encoded date : UTC 2013-12-20 21:14:08
    Writing application : mkvmerge v6.1.0 (;Old Devil;) built on Mar 4 2013 09:10:42
    Writing library : libebml v1.3.0 libmatroska v1.4.0

    Video
    ID : 1
    Format : AVC
    Format/Info : Advanced Video Codec
    Format profile : High@L4.1
    Format settings, CABAC : Yes
    Format settings, ReFrames : 9 frames
    Codec ID : V_MPEG4/ISO/AVC
    Duration : 1h 32mn
    Bit rate : 6 037 Kbps
    Width : 1 280 pixels
    Height : 720 pixels
    Display aspect ratio : 16:9
    Frame rate : 23.976 fps
    Color space : YUV
    Chroma subsampling : 4:2:0
    Bit depth : 8 bits
    Scan type : Progressive
    Bits/(Pixel*Frame) : 0.273
    Stream size : 3.79 GiB (84%)
    Writing library : x264 core 125 r2208 d9d2288
    Encoding settings : cabac=1 / ref=9 / deblock=1:-3:-3 / analyse=0x3:0x133 / me=umh / subme=10 / psy=1 / psy_rd=1.00:0.00 / mixed_ref=1 / me_range=32 / chroma_me=1 / trellis=2 / 8x8dct=1 / cqm=0 / deadzone=21,11 / fast_pskip=1 / chroma_qp_offset=-2 / threads=12 / lookahead_threads=2 / sliced_threads=0 / nr=0 / decimate=0 / interlaced=0 / bluray_compat=0 / constrained_intra=0 / bframes=7 / b_pyramid=2 / b_adapt=2 / b_bias=0 / direct=3 / weightb=1 / open_gop=0 / weightp=2 / keyint=250 / keyint_min=23 / scenecut=40 / intra_refresh=0 / rc_lookahead=80 / rc=2pass / mbtree=1 / bitrate=6037 / ratetol=1.0 / qcomp=0.60 / qpmin=0 / qpmax=69 / qpstep=4 / cplxblur=20.0 / qblur=0.5 / vbv_maxrate=30000 / vbv_bufsize=30000 / nal_hrd=none / ip_ratio=1.50 / aq=1:1.00
    Language : English
    Default : No
    Forced : No

    Audio #1
    ID : 2
    Format : AC-3
    Format/Info : Audio Coding 3
    Mode extension : CM (complete main)
    Format settings, Endianness : Big
    Codec ID : A_AC3
    Duration : 1h 32mn
    Bit rate mode : Constant
    Bit rate : 192 Kbps
    Channel(s) : 2 channels
    Channel positions : Front: L R
    Sampling rate : 48.0 KHz
    Bit depth : 16 bits
    Compression mode : Lossy
    Stream size : 126 MiB (3%)
    Language : Russian
    Default : Yes
    Forced : No

    Audio #2
    ID : 3
    Format : DTS
    Format/Info : Digital Theater Systems
    Codec ID : A_DTS
    Duration : 1h 32mn
    Bit rate mode : Constant
    Bit rate : 755 Kbps
    Channel(s) : 6 channels
    Channel positions : Front: L C R, Side: L R, LFE
    Sampling rate : 48.0 KHz
    Bit depth : 16 bits
    Compression mode : Lossy
    Stream size : 497 MiB (11%)
    Language : English
    Default : No
    Forced : No
    Скриншоты для ознакомления

    Размер скачиваемого торрента: 4.49 GB (4816639277 Bytes)

    Юлия Икс / Julia X (2011) BDRip 720p | P скачать через торрент бесплатно
    загрузка...
    Рейтинг →
     (голосов: 1, оценка 3/5, голосовать можно 1 раз )

    Другие торренты по теме:

  • Юлия Икс / Julia X (2011) DVD9 от NovaLan
  • Юлия Икс / Julia X (2011) HDRip | P скачать через торрент бесплатно


    • Комментарии (0):

      Информация

      Информация

        Посетители, находящиеся в группе Гости, не могут оставлять комментарии в данной новости.

        ↓ Меню



        ↓ Опрос

        А Вы добавили сайт в закладки?
        Да
        Не


        Top 10 за месяц (Фильмы)