.
Авторизация | Регистрация
Хочешь лучшие торренты? Добавь свой email!
Добавить
» » Враг у ворот / Enemy at the Gates (2001) BDRip от New-Team торрент скачать бесплатно




    Враг у ворот / Enemy at the Gates (2001) BDRip от New-Team торрент скачать бесплатно

    Опубликовал: Админ | Дата: 27-02-2015, 11:09 | Просмотров: 344

    За пределами возможного


    Снималось в: США, Германия, Великобритания, Ирландия
    Создали в: DOS, KC Medien AG, Little Bird, Mandalay Pictures, MP Film Management UNLS Produktion GmbH and Co. KG, Paramount Pictures, Reperage, Swanford Films
    Категория жанра: триллер, драма, военный, история
    Создали в: 2001
    Время просмотра: 02:10:54

    Перевод текста: Профессиональный (дублированный) (Пифагор) Профессиональный (многоголосый закадровый) (R1 Universal)
    Оригинальная аудиодорожка: английский
    Субтитры подготовлены: нет

    Главный режиссер: Жан-Жак Анно / Jean-Jacques Annaud

    Актеры: Джуд Лоу, Эд Харрис, Рейчел Вайс, Джозеф Файнс, Боб Хоскинс, Рон Перлман, Ева Маттес, Гэбриел Томсон, Маттиас Хабих, Софи Роиз...

    Роли дублировали: Юрий Брежнев, Марианна Шульц, Андрей Градов, Никита Прозоровский, Виктор Петров

    Сюжет:
    1942 год, разгар Сталинградской битвы. Немецкое командование направляет на передовую своего лучшего стрелка, майора Кенига, с особым заданием. Этот опытный и терпеливый профессионал — единственный, кто может попытаться справиться с русским ангелом смерти — неуловимым снайпером Василием Зайцевым.
    Зайцев — легенда и икона для защитников Сталинграда. Каждый день он выносит смертный приговор десяткам захватчиков, попавших в перекрестье его прицела. Между двумя уникальными снайперами начинается смертельная схватка, победителем из которой будет суждено выйти лишь одному…




    Исходник: BDRemux 1080p
    Тип релиза: BDRip
    Контейнер: AVI

    Информация о видео: 720x400 (16:9), 23,976 fps, XviD ~ 1380 kbps avg, 0.200 bit/pixel
    Информация о звуке: 48 kHz, Dolby Digital AC3 2.0, 192 kbps Дубляж (Пифагор)
    Информация о звуке: 48 kHz, Dolby Digital AC3 5.1, 448 kbps MVO (R1)
    Информация о звуке: 48 kHz, Dolby Digital AC3 5.1, 384 kbps MVO (Universal)
    Информация о звуке: 48 kHz, Dolby Digital AC3 5.1, 384 kbps Украинский (MVO)
    Информация о звуке: 48 kHz, Dolby Digital AC3 5.1, 384 kbps Английский

    Раздача от:
    MediaInfo

    Общее
    Полное имя : Vrag.u.vorot.2001.BDRip-2,91_New-team_by_AVP_Studio.avi
    Формат : AVI
    Формат/Информация : Audio Video Interleave
    Профиль формата : OpenDML
    Размер файла : 2,93 Гбайт
    Продолжительность : 2 ч. 10 м.
    Общий поток : 3202 Кбит/сек
    Программа кодирования : VirtualDubModRus 1.5.10.2 (build 2542/release)
    Библиотека кодирования : VirtualDubMod build 2542/release

    Видео
    Идентификатор : 0
    Формат : MPEG-4 Visual
    Профиль формата : Advanced Simple@L5
    Параметр BVOP формата : 1
    Параметр QPel формата : Нет
    Параметр GMC формата : Без точки перехода
    Параметр матрицы формата : Выборочная
    Идентификатор кодека : XVID
    Идентификатор кодека/Подсказка : XviD
    Продолжительность : 2 ч. 10 м.
    Битрейт : 1380 Кбит/сек
    Ширина : 720 пикселей
    Высота : 400 пикселей
    Соотношение сторон : 16:9
    Частота кадров : 23,976 кадра/сек
    Цветовое пространство : YUV
    Субдискретизация насыщенности : 4:2:0
    Битовая глубина : 8 бит
    Тип развёртки : Прогрессивная
    Метод сжатия : С потерями
    Бит/(Пиксели*Кадры) : 0.200
    Размер потока : 1,26 Гбайт (43%)
    Библиотека кодирования : XviD 73

    Аудио #1
    Идентификатор : 1
    Формат : AC-3
    Формат/Информация : Audio Coding 3
    Расширение режима : CM (complete main)
    Идентификатор кодека : 2000
    Продолжительность : 2 ч. 10 м.
    Вид битрейта : Постоянный
    Битрейт : 192 Кбит/сек
    Каналы : 2 канала
    Расположение каналов : Front: L R
    Частота : 48,0 КГц
    Битовая глубина : 16 бит
    Метод сжатия : С потерями
    Размер потока : 180 Мбайт (6%)
    Выравнивание : Разделение по промежуткам
    Продолжительность промежутка : 42 мс. (1,00 видеокадр)
    Время предзагрузки промежутка : 500 мс.

    Аудио #2
    Идентификатор : 2
    Формат : AC-3
    Формат/Информация : Audio Coding 3
    Расширение режима : CM (complete main)
    Идентификатор кодека : 2000
    Продолжительность : 2 ч. 10 м.
    Вид битрейта : Постоянный
    Битрейт : 448 Кбит/сек
    Каналы : 6 каналов
    Расположение каналов : Front: L C R, Side: L R, LFE
    Частота : 48,0 КГц
    Битовая глубина : 16 бит
    Метод сжатия : С потерями
    Размер потока : 419 Мбайт (14%)
    Выравнивание : Разделение по промежуткам
    Продолжительность промежутка : 42 мс. (1,00 видеокадр)
    Время предзагрузки промежутка : 500 мс.

    Аудио #3
    Идентификатор : 3
    Формат : AC-3
    Формат/Информация : Audio Coding 3
    Расширение режима : CM (complete main)
    Идентификатор кодека : 2000
    Продолжительность : 2 ч. 10 м.
    Вид битрейта : Постоянный
    Битрейт : 384 Кбит/сек
    Каналы : 6 каналов
    Расположение каналов : Front: L C R, Side: L R, LFE
    Частота : 48,0 КГц
    Битовая глубина : 16 бит
    Метод сжатия : С потерями
    Размер потока : 359 Мбайт (12%)
    Выравнивание : Разделение по промежуткам
    Продолжительность промежутка : 42 мс. (1,00 видеокадр)
    Время предзагрузки промежутка : 500 мс.

    Аудио #4
    Идентификатор : 4
    Формат : AC-3
    Формат/Информация : Audio Coding 3
    Расширение режима : CM (complete main)
    Идентификатор кодека : 2000
    Продолжительность : 2 ч. 10 м.
    Вид битрейта : Постоянный
    Битрейт : 384 Кбит/сек
    Каналы : 6 каналов
    Расположение каналов : Front: L C R, Side: L R, LFE
    Частота : 48,0 КГц
    Битовая глубина : 16 бит
    Метод сжатия : С потерями
    Размер потока : 359 Мбайт (12%)
    Выравнивание : Разделение по промежуткам
    Продолжительность промежутка : 42 мс. (1,00 видеокадр)
    Время предзагрузки промежутка : 500 мс.

    Аудио #5
    Идентификатор : 5
    Формат : AC-3
    Формат/Информация : Audio Coding 3
    Расширение режима : CM (complete main)
    Идентификатор кодека : 2000
    Продолжительность : 2 ч. 10 м.
    Вид битрейта : Постоянный
    Битрейт : 384 Кбит/сек
    Каналы : 6 каналов
    Расположение каналов : Front: L C R, Side: L R, LFE
    Частота : 48,0 КГц
    Битовая глубина : 16 бит
    Метод сжатия : С потерями
    Размер потока : 359 Мбайт (12%)
    Выравнивание : Разделение по промежуткам
    Продолжительность промежутка : 42 мс. (1,00 видеокадр)
    Время предзагрузки промежутка : 500 мс

    Скриншоты для ознакомления



    Интересные факты

    Съемки длились с января по май 2000 года в Kavallerie- und Panzertruppenschule Krampnitz.
    Битва в Сталинграде воссоздана в нескольких видеоиграх:
    Call of Duty — одна из миссий фактически списана со сцены форсирования Волги из фильма.
    Call of Duty 2 — русский игрок Василий проходит снайпер-ориентированную миссию, которая включает в себя трюк из фильма — выманивание на каску. Также в одной из миссий герой переходит из одного района города в другой через трубопровод.
    Call of Duty: World at War — русский игрок приходит в себя в переполненном трупами фонтане в центре Сталинграда и под руководством сержанта Резнова убивает вражеского снайпера (выискивая его в окнах универмага, как в фильме), а затем немецкого генерала Амселя.
    На банкете звучит Гимн СССР, принятый в 1944 году, со словами 1977 года, хотя события в фильме датированы концом 1942 года.
    В фильме в партийном билете Зайцева указана неверно его дата рождения 3 марта 1915 г. Василий Зайцев родился 23 марта 1915 г.
    В эпизоде встречи Зайцева с Хрущёвым царапина на лбу героя заклеена пластырем телесного цвета - явный анахронизм, лейкопластырь в СССР всегда был только белым.
    Фильм был подвергнут критике как в России, так и на Западе за слишком свободные трактовки фактов, а также выдуманные сюжет и детали в изображениях персонажей (в частности, политрука Данилова и немецкого снайпера Кёнига), уход от исторических фактов.
    Некоторые советские ветераны Сталинграда были настолько оскорблены неточностями в фильме и тем, как была изображена Красная Армия, что 7 мая 2001, вскоре после того, как прошла премьера фильма в России, они выразили своё недовольство в Думе, требуя запрета фильма, однако эта просьба не была удовлетворена.

    Залил: AVPStudio
    Размер скачиваемого торрента: 2.93 GB (3143661568 Bytes)

    Враг у ворот / Enemy at the Gates (2001) BDRip от New-Team торрент скачать бесплатно
    загрузка...
    Рейтинг →
     (голосов: 1, оценка 3/5, голосовать можно 1 раз )

    Другие торренты по теме:

  • Враг у ворот / Enemy at the Gates (2001) BDRip-AVC от New-Team
  • Враг у ворот / Enemy at the Gates (2001) HDRip от Scarabey скачать через торрент бесплатно
  • Враг у ворот / Enemy at the Gates (2001) HDRip от Scarabey | P
  • Враг у ворот. Фантастика ближнего боя
  • Серия книг - Враг у ворот. Фантастика ближнего боя (2012-2017) FB2


    • Комментарии (0):

      Информация

      Информация

        Посетители, находящиеся в группе Гости, не могут оставлять комментарии в данной новости.

        ↓ Меню



        ↓ Опрос

        А Вы добавили сайт в закладки?
        Да
        Не


        Top 10 за месяц (Фильмы)