.
Авторизация | Регистрация
» » Последняя любовь мистера Моргана / Mr. Morgans Last Love (2013) HDRip торрент скачать бесплатно




    Последняя любовь мистера Моргана / Mr. Morgans Last Love (2013) HDRip торрент скачать бесплатно

    Опубликовал: Админ | Дата: 27-02-2015, 11:09 | Просмотров: 292



    Детально о кино
    Русское название: Последняя любовь мистера Моргана
    Русское название в мировом прокате: Mr. Morgan;s Last Love
    Создали в: 2013
    Категория жанра: драма, комедия
    Главный режиссер: Сандра Неттельбек
    Актеры: Майкл Кейн, Клеманс Поэзи, Джиллиан Андерсон, Джастин Кирк, Джейн Александр, Ричард Хоуп, Аликс Пуасон, Анн Альваро, Кристель Корнил, Янник Шуара

    Сюжет фильма:
    Пожилой американский профессор Мэтью Морган одиноко и замкнуто живет в Париже, преподает философию в университете. Жена, которую он очень любил, умерла несколько лет назад. Кажется, что всё главное в его жизни осталось в прошлом. Так и было, пока однажды в автобусе ему, едва не упавшему, не протянула руку помощи Полин, молодая, открытая, веселая парижанка…




    Снималось в: Германия, Бельгия, США, Франция
    Киностудия: Kaminski.Stiehm.Film GmbH, Bavaria Pictures, Senator Film
    Время просмотра: 01:55:49
    Перевод текста: Профессиональное (двухголосое) Jimmy.J

    Файл
    Кодек для видео: XviD
    Качество фильма: HDRip (Исх. BDRip 720p)
    Информация о видео: 704x384 (1.83:1), 23.976 fps, XviD build 50 ~1404 kbps avg, 0.22 bit/pixel
    Информация о звуке: 48 kHz, AC3 Dolby Digital, 3/2 (L,C,R,l,r) LFE ch, ~384.00 kbps avg
    Субтитры: нет

    Семпл

    MediaInfo

    Общее
    Полное имя : S:ФильмыПоследняя любовь мистера Моргана. 2013. HDRip. 1.45.avi
    Формат : AVI
    Формат/Информация : Audio Video Interleave
    Размер файла : 1,45 Гбайт
    Продолжительность : 1 ч. 55 м.
    Общий поток : 1797 Кбит/сек
    Программа кодирования : VirtualDubMod 1.5.10.3 | www.virtualdub-fr.org || (build 2550/release)
    Библиотека кодирования : VirtualDubMod build 2550/release

    Видео
    Идентификатор : 0
    Формат : MPEG-4 Visual
    Профиль формата : Advanced Simple@L5
    Параметр BVOP формата : 2
    Параметр QPel формата : Нет
    Параметр GMC формата : Без точки перехода
    Параметр матрицы формата : Выборочная
    Идентификатор кодека : XVID
    Идентификатор кодека/Подсказка : XviD
    Продолжительность : 1 ч. 55 м.
    Битрейт : 1404 Кбит/сек
    Ширина : 704 пикс.
    Высота : 384 пикс.
    Соотношение сторон : 16:9
    Частота кадров : 23,976 кадр/сек
    Цветовое пространство : YUV
    Подвыборка цветности : 4:2:0
    Битовая глубина : 8 бит
    Тип развёртки : Прогрессивная
    Метод сжатия : С потерями
    Бит/(Пиксели*Кадры) : 0.217
    Размер потока : 1,14 Гбайт (78%)
    Библиотека кодирования : XviD 1.2.1 (UTC 2008-12-04)

    Аудио
    Идентификатор : 1
    Формат : AC-3
    Формат/Информация : Audio Coding 3
    Расширение режима : CM (complete main)
    Идентификатор кодека : 2000
    Продолжительность : 1 ч. 55 м.
    Вид битрейта : Постоянный
    Битрейт : 384 Кбит/сек
    Каналы : 6 каналов
    Расположение каналов : Front: L C R, Side: L R, LFE
    Частота : 48,0 КГц
    Битовая глубина : 16 бит
    Метод сжатия : С потерями
    Размер потока : 318 Мбайт (21%)
    Выравнивание : Разделение по промежуткам
    Продолжительность промежутка : 42 мс. (1,00 видеокадр)
    Время предзагрузки промежутка : 500 ms

    Скриншоты для ознакомления

    Залил: Losk
    Размер скачиваемого торрента: 1.45 GB (1561178112 Bytes)

    Последняя любовь мистера Моргана / Mr. Morgans Last Love (2013) HDRip торрент скачать бесплатно
    загрузка...
    Рейтинг →
     (голосов: 1, оценка 5/5, голосовать можно 1 раз )

    Другие торренты по теме:

  • Последняя любовь на Земле / Perfect Sense(2011) BDRip-AVC | iPad торрент скачать бесплатно
  • Ренуар. Последняя любовь / Renoir (2012) WEB-DLRip от Getty | P торрент скачать бесплатно
  • Последняя любовь мистера Моргана / Mr. Morgans Last Love (2013) BDRip 720p от Leonardo and Scarabey скачать через торрент бесплатно
  • Последняя любовь мистера Моргана / Mr. Morgans Last Love (2013) BDRip-AVC от MediaClub | L2 скачать через торрент бесплатно
  • Последняя любовь мистера Моргана / Mr. Morgans Last Love (2013) HDRip от SANNYa скачать через торрент бесплатно
  • Последняя любовь мистера Моргана / Mr. Morgans Last Love (2013) HDRip от Scarabey торрент скачать бесплатно
  • Ренуар. Последняя любовь / Renoir (2012) HDRip от Scarabey | Р скачать через торрент бесплатно
  • Следствие вели... с Леонидом Каневским. Последняя любовь (2014) SATRip торрент скачать бесплатно


    • Комментарии (0):

      Информация

      Информация

        Посетители, находящиеся в группе Гости, не могут оставлять комментарии в данной новости.

        ↓ Меню



        ↓ Опрос

        А Вы добавили сайт в закладки?
        Да
        Не


        Top 10 за неделю (Фильмы)