.
Авторизация | Регистрация
» » Эммануэль 2 / Emmanuelle: Lantivierge (1975) BDRip by msltel | L1 торрент скачать бесплатно




    Эммануэль 2 / Emmanuelle: Lantivierge (1975) BDRip by msltel | L1 торрент скачать бесплатно

    Опубликовал: Админ | Дата: 27-02-2015, 11:09 | Просмотров: 385



    Русское название: Эммануэль 2
    Русское название в мировом прокате: Emmanuelle: L;antivierge
    Создали в: 1975
    Категория жанра: Эротика, мелодрама
    Снималось в: Франция, Trinacra Films, Parafrance Films, Orph?e Arts
    Главный режиссер: Франсис Джакобетти
    Актеры: Сильвия Кристель, Умберто Орсини, Фредерик Лагаш, Катрин Риве, Анри Черняк, Том Кларк, Флоранс Л. Афума, Клер Ришар, Лаура Гемсер, Жаклин Мэй Лайн, Ева Хамел, Кристиана Жибелин, Жан-Пьерр Нэм, Марсель Лан Фонг, Изабель Лакан, Каролин Лоранс, Венантино Венантини

    Сюжет фильма: Во втором фильме знаменитого сериала Эммануэль из прилежной ученицы, усваивающей уроки любви, превращается в неистовую и ненасытную охотницу за наслаждениями. Эротизм картины значительно превышает первый фильм сериала. Незатейливый сюжет украшен пейзажами и нарядами, автомобилями и океанскими волнами и наполнен страстью.

    Качество фильма: BDRip
    Информация о видео: XviD, 1577 Кбит/с, 720х304
    Информация о звуке: Русский, французский ( AC3, 2 ch, 192 Кбит/с)
    Размер скачиваемого торрента: 1.26 ГБ
    Время просмотра: 01:31:25
    Перевод текста: Любительский одноголосый (Алексей Мишин)
    Субтитры: Русские, английские

    Исходник: Remux (HDTracker)

    Сравнение с исходником



    MediaInfo
    Общее
    Полное имя : E:VideoEmmanuelle.2.1975.XviD.BDRipEmmanuelle.2.1975.eng.srt
    Размер файла : 84,5 Кбайт

    Общее
    Полное имя : E:VideoEmmanuelle.2.1975.XviD.BDRipEmmanuelle.2.1975.Original.fre.ac3
    Формат : AC-3
    Формат/Информация : Audio Coding 3
    Размер файла : 126 Мбайт
    Продолжительность : 1 ч. 31 м.
    Режим общего битрейта : Постоянный
    Общий поток : 192 Кбит/сек

    Аудио
    Формат : AC-3
    Формат/Информация : Audio Coding 3
    Расширение режима : CM (complete main)
    Параметр Endianness формата : Big
    Продолжительность : 1 ч. 31 м.
    Вид битрейта : Постоянный
    Битрейт : 192 Кбит/сек
    Каналы : 2 канала
    Расположение каналов : Front: L R
    Частота : 48,0 КГц
    Битовая глубина : 16 бит
    Метод сжатия : С потерями
    Размер потока : 126 Мбайт (100%)

    Общее
    Полное имя : E:VideoEmmanuelle.2.1975.XviD.BDRipEmmanuelle.2.1975.rus.srt
    Размер файла : 83,1 Кбайт

    Общее
    Полное имя : E:VideoEmmanuelle.2.1975.XviD.BDRipEmmanuelle.2.1975.XviD.BDRip.avi
    Формат : AVI
    Формат/Информация : Audio Video Interleave
    Размер файла : 1,14 Гбайт
    Продолжительность : 1 ч. 31 м.
    Общий поток : 1779 Кбит/сек
    Программа кодирования : VirtualDubMod 1.5.10.2 (build 2540/release)
    Библиотека кодирования : VirtualDubMod build 2540/release

    Видео
    Идентификатор : 0
    Формат : MPEG-4 Visual
    Профиль формата : Advanced Simple@L5
    Параметр BVOP формата : 1
    Параметр QPel формата : Нет
    Параметр GMC формата : Без точки перехода
    Параметр матрицы формата : Default (H.263)
    Режим смешивания : Сжатый битовый поток
    Идентификатор кодека : XVID
    Идентификатор кодека/Подсказка : XviD
    Продолжительность : 1 ч. 31 м.
    Битрейт : 1577 Кбит/сек
    Ширина : 720 пикселей
    Высота : 304 пикселя
    Соотношение сторон : 2,35:1
    Частота кадров : 23,976 кадра/сек
    Цветовое пространство : YUV
    Субдискретизация насыщенности : 4:2:0
    Битовая глубина : 8 бит
    Тип развёртки : Прогрессивная
    Метод сжатия : С потерями
    Бит/(Пиксели*Кадры) : 0.301
    Размер потока : 1,01 Гбайт (89%)
    Библиотека кодирования : XviD 1.2.1 (UTC 2008-12-04)

    Аудио
    Идентификатор : 1
    Формат : AC-3
    Формат/Информация : Audio Coding 3
    Расширение режима : CM (complete main)
    Параметр Endianness формата : Big
    Идентификатор кодека : 2000
    Продолжительность : 1 ч. 31 м.
    Вид битрейта : Постоянный
    Битрейт : 192 Кбит/сек
    Каналы : 2 канала
    Расположение каналов : Front: L R
    Частота : 48,0 КГц
    Битовая глубина : 16 бит
    Метод сжатия : С потерями
    Размер потока : 126 Мбайт (11%)
    Выравнивание : Разделение по промежуткам
    Продолжительность промежутка : 42 мс. (1,00 видеокадр)
    Время предзагрузки промежутка : 500 мс.
    Скриншоты для ознакомления



    Залил: msltel
    Размер скачиваемого торрента: 1.26 GB (1351392018 Bytes)

    Эммануэль 2 / Emmanuelle: Lantivierge (1975) BDRip by msltel | L1 торрент скачать бесплатно
    загрузка...
    Рейтинг →
     (голосов: 1, оценка 4/5, голосовать можно 1 раз )

    Другие торренты по теме:

  • OST - Эммануэль / Emmanuelle (2007) MP3 торрент скачать бесплатно
  • Эммануэль 2 / Emmanuelle: Lantivierge (1975) BDRip-AVC от MediaClub | P, A скачать через торрент бесплатно
  • Эммануэль 4 / Emmanuelle IV (1983) DVDRip торрент скачать бесплатно
  • Прощай, Эммануэль / Goodbye, Emmanuelle (1977) BDRip by msltel | L1 торрент скачать бесплатно
  • Прощай, Эммануэль / Goodbye, Emmanuelle (1977) BDRip 720p by msltel | L1 торрент скачать бесплатно
  • Эммануэль 2 / Emmanuelle: Lantivierge (1975) BDRip 720p by msltel | L1 торрент скачать бесплатно
  • Прощай, Эммануэль / Goodbye Emmanuelle (1977) BDRip-AVC от MediaClub | L1 скачать через торрент бесплатно
  • Прощай, Эммануэль / Goodbye Emmanuelle (1977) BDRip 1080p by msltel | L1 скачать через торрент бесплатно


    • Комментарии (0):

      Информация

      Информация

        Посетители, находящиеся в группе Гости, не могут оставлять комментарии в данной новости.

        ↓ Меню



        ↓ Опрос

        А Вы добавили сайт в закладки?
        Да
        Не


        Top 10 за неделю (Фильмы)