.
Авторизация | Регистрация
Хочешь лучшие торренты? Добавь свой email!
Добавить
» » Зулусы / Zulu (1964) BDRip by msltel | P, A торрент скачать бесплатно




    Зулусы / Zulu (1964) BDRip by msltel | P, A торрент скачать бесплатно

    Опубликовал: Админ | Дата: 27-02-2015, 11:09 | Просмотров: 369



    Русское название: Зулусы
    Русское название в мировом прокате: Zulu
    Создали в: 1964
    Категория жанра: Боевик, драма, военный, история
    Снималось в: Великобритания, Diamond Films
    Главный режиссер: Сай Эндфилд
    Актеры: Майкл Кейн, Стэнли Бэйкер, Джек Хоукинс, Улла Якобсон, Джеймс Бут, Найджел Грин (I), Пол Данеман, Глинн Эдвардс, Нил МакКарти, Гари Бонд, Дики Оуэн

    Сюжет фильма: Южная Африка. Разгар англо-зулусской войны. Англичане ещё не оправились после ужасного поражения 22 января 1879 года, а Британскую армию уже ждёт новое суровое испытание. Сто сорок отважных валлийских стрелков вступят в кровавый бой с четырьмя тысячами свирепых воинов-зулусов. Из этой неравной двенадцатичасовой битвы храбрые солдаты выйдут героями. Но какой ценой?!

    Качество фильма: BDRip
    Размер скачиваемого торрента: 2.59 ГБ
    Время просмотра: 02:18:24

    Информация о видео: XViD, 1574 Кбит/с, 720x304
    Информация о звуке 1: русский, 48 kHz, AC3, 2 ch, 192 kbps avg, Профессиональный многоголосый, СТС
    Информация о звуке 2: русский, 48 kHz, AC3, 2 ch, 192 kbps avg, Профессиональный многоголосый, Премьер Видео (VHS)

    Внешние файлы
    Информация о звуке: русский, 48 kHz, AC3, 2 ch, 256 kbps avg, Авторский, Сергей Кузнецов
    Информация о звуке: английский, 48 kHz, AC3, 2 ch, 448 kbps avg, Оригинал
    Субтитры: русские
    Субтитры: английские

    Исходник: ЗЕВС911 (Кинозал)

    Сравнение с исходником



    MediaInfo
    Общее
    Полное имя : E:VideoZulusy.1964.XviD.BDRipZulusy.1964.AVO.rus.С.Кузнецов.ac3
    Формат : AC-3
    Формат/Информация : Audio Coding 3
    Размер файла : 253 Мбайт
    Продолжительность : 2 ч. 18 м.
    Режим общего битрейта : Постоянный
    Общий поток : 256 Кбит/сек

    Аудио
    Формат : AC-3
    Формат/Информация : Audio Coding 3
    Расширение режима : CM (complete main)
    Параметр Endianness формата : Big
    Продолжительность : 2 ч. 18 м.
    Вид битрейта : Постоянный
    Битрейт : 256 Кбит/сек
    Каналы : 2 канала
    Расположение каналов : Front: L R
    Частота : 48,0 КГц
    Битовая глубина : 16 бит
    Метод сжатия : С потерями
    Размер потока : 253 Мбайт (100%)

    Общее
    Полное имя : E:VideoZulusy.1964.XviD.BDRipZulusy.1964.eng.srt
    Формат : SubRip
    Размер файла : 81,5 Кбайт

    Текст
    Формат : SubRip
    Метод сжатия : Без потерь

    Общее
    Полное имя : E:VideoZulusy.1964.XviD.BDRipZulusy.1964.Original.eng.ac3
    Формат : AC-3
    Формат/Информация : Audio Coding 3
    Размер файла : 443 Мбайт
    Продолжительность : 2 ч. 18 м.
    Режим общего битрейта : Постоянный
    Общий поток : 448 Кбит/сек

    Аудио
    Формат : AC-3
    Формат/Информация : Audio Coding 3
    Расширение режима : CM (complete main)
    Параметр Endianness формата : Big
    Продолжительность : 2 ч. 18 м.
    Вид битрейта : Постоянный
    Битрейт : 448 Кбит/сек
    Каналы : 2 канала
    Расположение каналов : Front: L R
    Частота : 48,0 КГц
    Битовая глубина : 16 бит
    Метод сжатия : С потерями
    Размер потока : 443 Мбайт (100%)

    Общее
    Полное имя : E:VideoZulusy.1964.XviD.BDRipZulusy.1964.rus.srt
    Формат : SubRip
    Размер файла : 102 Кбайт

    Текст
    Формат : SubRip
    Метод сжатия : Без потерь

    Общее
    Полное имя : E:VideoZulusy.1964.XviD.BDRipZulusy.1964.XviD.BDRip.avi
    Формат : AVI
    Формат/Информация : Audio Video Interleave
    Размер файла : 1,91 Гбайт
    Продолжительность : 2 ч. 18 м.
    Общий поток : 1972 Кбит/сек
    Программа кодирования : VirtualDubMod 1.5.10.2 (build 2540/release)
    Библиотека кодирования : VirtualDubMod build 2540/release

    Видео
    Идентификатор : 0
    Формат : MPEG-4 Visual
    Профиль формата : Advanced Simple@L5
    Параметр BVOP формата : 1
    Параметр QPel формата : Нет
    Параметр GMC формата : Без точки перехода
    Параметр матрицы формата : Default (H.263)
    Режим смешивания : Сжатый битовый поток
    Идентификатор кодека : XVID
    Идентификатор кодека/Подсказка : XviD
    Продолжительность : 2 ч. 18 м.
    Битрейт : 1574 Кбит/сек
    Ширина : 720 пикселей
    Высота : 304 пикселя
    Соотношение сторон : 2,35:1
    Частота кадров : 23,976 кадра/сек
    Цветовое пространство : YUV
    Субдискретизация насыщенности : 4:2:0
    Битовая глубина : 8 бит
    Тип развёртки : Прогрессивная
    Метод сжатия : С потерями
    Бит/(Пиксели*Кадры) : 0.300
    Размер потока : 1,52 Гбайт (80%)
    Библиотека кодирования : XviD 1.2.1 (UTC 2008-12-04)

    Аудио #1
    Идентификатор : 1
    Формат : AC-3
    Формат/Информация : Audio Coding 3
    Расширение режима : CM (complete main)
    Параметр Endianness формата : Big
    Идентификатор кодека : 2000
    Продолжительность : 2 ч. 18 м.
    Вид битрейта : Постоянный
    Битрейт : 192 Кбит/сек
    Каналы : 2 канала
    Расположение каналов : Front: L R
    Частота : 48,0 КГц
    Битовая глубина : 16 бит
    Метод сжатия : С потерями
    Размер потока : 190 Мбайт (10%)
    Выравнивание : Разделение по промежуткам
    Продолжительность промежутка : 42 мс. (1,00 видеокадр)
    Время предзагрузки промежутка : 500 мс.

    Аудио #2
    Идентификатор : 2
    Формат : AC-3
    Формат/Информация : Audio Coding 3
    Расширение режима : CM (complete main)
    Параметр Endianness формата : Big
    Идентификатор кодека : 2000
    Продолжительность : 2 ч. 18 м.
    Вид битрейта : Постоянный
    Битрейт : 192 Кбит/сек
    Каналы : 2 канала
    Расположение каналов : Front: L R
    Частота : 48,0 КГц
    Битовая глубина : 16 бит
    Метод сжатия : С потерями
    Размер потока : 190 Мбайт (10%)
    Выравнивание : Разделение по промежуткам
    Продолжительность промежутка : 42 мс. (1,00 видеокадр)
    Время предзагрузки промежутка : 500 мс.
    Скриншоты для ознакомления



    Залил: msltel
    Размер скачиваемого торрента: 2.59 GB (2778349932 Bytes)

    Зулусы / Zulu (1964) BDRip by msltel | P, A торрент скачать бесплатно
    загрузка...
    Рейтинг →
     (голосов: 1, оценка 4/5, голосовать можно 1 раз )

    Другие торренты по теме:

  • Зулусы / Zulu (1964) BDRip 720p by msltel | P, A
  • Зулусы / Zulu (1964) BDRip 1080p by msltel | P, A скачать через торрент бесплатно
  • Зулусы / Битва у Роркс-Дрифт / Zulu / The Battle of Rorkes Drift (1964) BDRip от Rulya74 | P


    • Комментарии (0):

      Информация

      Информация

        Посетители, находящиеся в группе Гости, не могут оставлять комментарии в данной новости.

        ↓ Меню



        ↓ Опрос

        А Вы добавили сайт в закладки?
        Да
        Не


        Top 10 за месяц (Фильмы)