.
Авторизация | Регистрация
» » Никогда не вытирай слезы без перчаток / Torka aldrig tarar utan handskar / Never wipe tears without gloves (2012) DVDRip-AVC | L1 торрент скачать бесплатно




    Никогда не вытирай слезы без перчаток / Torka aldrig tarar utan handskar / Never wipe tears without gloves (2012) DVDRip-AVC | L1 торрент скачать бесплатно

    Опубликовал: Админ | Дата: 27-02-2015, 11:09 | Просмотров: 344

    Никогда не вытирай слезы без перчаток / Torka aldrig tarar utan handskar / Never wipe tears without gloves



    Снималось в: Швеция
    Категория жанра: Драма
    Создали в: 2012
    Время просмотра: 3 x 58 мин.
    Перевод текста: Любительский одноголосый закадровый (Kirill Ivanov)
    Субтитры: Русские, SRT

    Главный режиссер: Симон Кайзер / Simon Kaijser

    Актеры: Адам Лундгрен, Адам Полсон, Бьёрн Чьелльман, Саймон Дж. Бергер, Эмиль Алмен, Майкл Йонсон, Кристоффер Свенссон, Кристоффер Берглунд, Анника Олссон, Стефан Саук и др.

    Сюжет:
    Расмусу и Бенджамину нет и 20-ти и каждый из них только вступает во взрослую жизнь.
    Расмус приехал в Стокгольм после окончания школы из шведской глубинки для продолжения учебы,
    а Бенджамин погружен в религиозную деятельность своей семьи и прихода Свидетелей Иеговы.
    Драматическая история о небольшом стокгольмском гей-комьюнити начала 80-х и до наших дней.

    Фильм снят по одноименной книге Йонаса Гарделля (Jonas Gardell)

    Качество фильма видео: HDTVRip 720p
    Тип видео видео: MKV
    Информация о видео: x264; 1280х720 (16:9); 25 fps; 2600 kbps; 0.115 bit/pixel
    Информация о звуке 1: AC3; 48 kHz; 5.1 (Front: L C R, Side: L R, LFE); 448 kbps | VO (Русский)
    Информация о звуке 2: AC3; 48 kHz; 5.1 (Front: L C R, Side: L R, LFE); 448 kbps | Original (Swedish)



    СЕМПЛ

    MediaInfo

    Общее
    Полное имя : Never wipe tears without gloves (2012) K_I_01.mkv
    Формат : Matroska
    Версия формата : Version 4 / Version 2
    Размер файла : 1,41 Гбайт
    Продолжительность : 57 м.
    Общий поток : 3499 Кбит/сек
    Название фильма : Never wipe tears without gloves (2012) K_I
    Дата кодирования : UTC 2013-10-03 12:11:51
    Программа кодирования : mkvmerge v6.4.1 (;Omega Point;) built on Sep 16 2013 22:05:10
    Библиотека кодирования : libebml v1.3.0 libmatroska v1.4.1

    Видео
    Идентификатор : 1
    Формат : AVC
    Формат/Информация : Advanced Video Codec
    Профиль формата : High@L4.1
    Параметр CABAC формата : Да
    Параметр ReFrames формата : 9 кадров
    Идентификатор кодека : V_MPEG4/ISO/AVC
    Продолжительность : 57 м.
    Битрейт : 2600 Кбит/сек
    Ширина : 1280 пикселей
    Высота : 720 пикселей
    Соотношение сторон : 16:9
    Режим частоты кадров : Постоянный
    Частота кадров : 25,000 кадров/сек
    Цветовое пространство : YUV
    Субдискретизация насыщенности : 4:2:0
    Битовая глубина : 8 бит
    Тип развёртки : Прогрессивная
    Бит/(Пиксели*Кадры) : 0.113
    Размер потока : 1,02 Гбайт (72%)
    Библиотека кодирования : x264 core 138 r2358 9e941d1
    Настройки программы : cabac=1 / ref=9 / deblock=1:-2:-1 / analyse=0x3:0x133 / me=umh / subme=10 / psy=1 / psy_rd=1.00:0.20 / mixed_ref=1 / me_range=24 / chroma_me=1 / trellis=2 / 8x8dct=1 / cqm=0 / deadzone=21,11 / fast_pskip=1 / chroma_qp_offset=-3 / threads=6 / lookahead_threads=1 / sliced_threads=0 / nr=0 / decimate=1 / interlaced=0 / bluray_compat=0 / constrained_intra=0 / bframes=4 / b_pyramid=2 / b_adapt=2 / b_bias=0 / direct=3 / weightb=1 / open_gop=0 / weightp=2 / keyint=250 / keyint_min=25 / scenecut=40 / intra_refresh=0 / rc_lookahead=60 / rc=2pass / mbtree=1 / bitrate=2600 / ratetol=1.0 / qcomp=0.60 / qpmin=0 / qpmax=69 / qpstep=4 / cplxblur=20.0 / qblur=0.5 / ip_ratio=1.40 / aq=1:1.00
    Default : Да
    Forced : Нет

    Аудио #1
    Идентификатор : 2
    Формат : AC-3
    Формат/Информация : Audio Coding 3
    Расширение режима : CM (complete main)
    Параметр Endianness формата : Big
    Идентификатор кодека : A_AC3
    Продолжительность : 57 м.
    Вид битрейта : Постоянный
    Битрейт : 448 Кбит/сек
    Каналы : 6 каналов
    Расположение каналов : Front: L C R, Side: L R, LFE
    Частота : 48,0 КГц
    Битовая глубина : 16 бит
    Метод сжатия : С потерями
    Размер потока : 186 Мбайт (13%)
    Язык : Russian
    Default : Да
    Forced : Нет

    Аудио #2
    Идентификатор : 3
    Формат : AC-3
    Формат/Информация : Audio Coding 3
    Расширение режима : CM (complete main)
    Параметр Endianness формата : Big
    Идентификатор кодека : A_AC3
    Продолжительность : 57 м.
    Вид битрейта : Постоянный
    Битрейт : 448 Кбит/сек
    Каналы : 6 каналов
    Расположение каналов : Front: L C R, Side: L R, LFE
    Частота : 48,0 КГц
    Битовая глубина : 16 бит
    Метод сжатия : С потерями
    Размер потока : 186 Мбайт (13%)
    Язык : Swedish
    Default : Нет
    Forced : Нет

    Текст
    Идентификатор : 4
    Формат : UTF-8
    Идентификатор кодека : S_TEXT/UTF8
    Идентификатор кодека/Информация : UTF-8 Plain Text
    Язык : Russian
    Default : Нет
    Forced : Нет


    Скриншоты для ознакомления





    Размер скачиваемого торрента: 4.26 GB (4577984607 Bytes)

    Никогда не вытирай слезы без перчаток / Torka aldrig tarar utan handskar / Never wipe tears without gloves (2012) DVDRip-AVC | L1 торрент скачать бесплатно
    загрузка...
    Рейтинг →
     (голосов: 1, оценка 4/5, голосовать можно 1 раз )

    Другие торренты по теме:



      Комментарии (0):

      Информация

      Информация

        Посетители, находящиеся в группе Гости, не могут оставлять комментарии в данной новости.

        ↓ Меню



        ↓ Опрос

        А Вы добавили сайт в закладки?
        Да
        Не


        Top 10 за неделю (Фильмы)