.
Авторизация | Регистрация
» » Гравитация / Gravity (2013) WEBRip | Чистый звук скачать через торрент бесплатно




    Гравитация / Gravity (2013) WEBRip | Чистый звук скачать через торрент бесплатно

    Опубликовал: Админ | Дата: 27-02-2015, 11:09 | Просмотров: 308



    Детально о кино
    Русское название: Гравитация
    Русское название в мировом прокате: Gravity
    Создали в: 2013
    Категория жанра: фантастика, драма, триллер
    Главный режиссер: Альфонсо Куарон
    Актеры: Сандра Баллок, Джордж Клуни, Эд Харрис, Орто Игнатиуссен, Пол Шарма, Эми Уоррен, Башер Саваж

    Сюжет фильма:
    Доктор Райан Стоун, блестящий специалист в области медицинского инжиниринга, отправляется в свою первую космическую миссию под командованием ветерана астронавтики Мэтта Ковальски, для которого этот полет — последний перед отставкой. Но во время, казалось бы, рутинной работы за бортом случается катастрофа.

    Шаттл уничтожен, а Стоун и Ковальски остаются совершенно одни; они находятся в связке друг с другом, и все, что они могут, — это двигаться по орбите в абсолютно черном пространстве без всякой связи с Землей и какой-либо надежды на спасение.


    Официальный сайт

    Снималось в: США, Великобритания
    Киностудия: Warner Brothers, Heyday Films
    Время просмотра: 01:30:54
    Перевод текста: Дублированный (чистый звук)

    Файл
    Кодек для видео: XviD
    Качество фильма: WEBRip
    Информация о видео: 1280x528, 2.40:1, 3 499 Kbps, 23.976 fps
    Информация о звуке: AC-3, 448 Kbps, 48.0 KHz, 6 ch, DUB

    Семпл

    Острожно - спойлер!
    General
    Complete name : /home/user/Видео/Gravity 2/Gravitacia 2013.avi
    Format : AVI
    Format/Info : Audio Video Interleave
    File size : 2.51 GiB
    Duration : 1h 30mn
    Overall bit rate : 3 958 Kbps

    Video
    ID : 0
    Format : MPEG-4 Visual
    Format profile : Advanced Simple@L5
    Format settings, BVOP : 2
    Format settings, QPel : No
    Format settings, GMC : No warppoints
    Format settings, Matrix : Default (H.263)
    Codec ID : XVID
    Codec ID/Hint : XviD
    Duration : 1h 30mn
    Bit rate : 3 499 Kbps
    Width : 1 280 pixels
    Height : 528 pixels
    Display aspect ratio : 2.40:1
    Frame rate : 23.976 fps
    Color space : YUV
    Chroma subsampling : 4:2:0
    Bit depth : 8 bits
    Scan type : Progressive
    Compression mode : Lossy
    Bits/(Pixel*Frame) : 0.216
    Stream size : 2.22 GiB (88%)
    Writing library : XviD 1.2.1 (UTC 2008-12-04)

    Audio
    ID : 1
    Format : AC-3
    Format/Info : Audio Coding 3
    Mode extension : CM (complete main)
    Format settings, Endianness : Big
    Codec ID : 2000
    Duration : 1h 30mn
    Bit rate mode : Constant
    Bit rate : 448 Kbps
    Channel count : 6 channels
    Channel positions : Front: L C R, Side: L R, LFE
    Sampling rate : 48.0 KHz
    Bit depth : 16 bits
    Compression mode : Lossy
    Stream size : 291 MiB (11%)
    Alignment : Aligned on interleaves
    Interleave, duration : 32 ms (0.77 video frame)



    Скриншоты для ознакомления

    Залил: Ptiflo
    Размер скачиваемого торрента: 2.51 GB (2698548634 Bytes)

    Гравитация / Gravity (2013) WEBRip | Чистый звук скачать через торрент бесплатно
    загрузка...
    Рейтинг →
     (голосов: 1, оценка 4/5, голосовать можно 1 раз )

    Другие торренты по теме:

  • Гравитация / Притяжение / Gravity (2012) WEB-DLRip, HDTVRip | L2 торрент скачать бесплатно
  • OST - Гравитация / Gravity (2013) MP3 скачать через торрент бесплатно
  • Гравитация / Gravity (2013) CAMRip от INTERCINEMA скачать через торрент бесплатно
  • Гравитация / Gravity (2013) CAMRip *PROPER* от INTERCINEMA торрент скачать бесплатно
  • Гравитация / Gravity (2013) DVDScr | Звук с TS торрент скачать бесплатно
  • Гравитация / Gravity (2013) DVDScr | Чистый звук скачать через торрент бесплатно
  • Гравитация / Gravity (2013) WEB-DLRip от New-Team | Чистый звук торрент скачать бесплатно
  • Гравитация / Gravity (2013) WEB-DL 720p | Чистый звук скачать через торрент бесплатно


    • Комментарии (0):

      Информация

      Информация

        Посетители, находящиеся в группе Гости, не могут оставлять комментарии в данной новости.

        ↓ Меню



        ↓ Опрос

        А Вы добавили сайт в закладки?
        Да
        Не


        Top 10 за неделю (Фильмы)