.
Авторизация | Регистрация
Хочешь лучшие торренты? Добавь свой email!
Добавить
» » Туз / Asso (1981) DVDRip от New-Team скачать через торрент бесплатно




    Туз / Asso (1981) DVDRip от New-Team скачать через торрент бесплатно

    Опубликовал: Админ | Дата: 27-02-2015, 11:09 | Просмотров: 452


    Снималось в: Италия
    Создали в: Intercapital
    Категория жанра: комедия
    Создали в: 1981
    Время просмотра: 01:30:50

    Перевод текста: Профессиональный (многоголосый закадровый)
    Оригинальная аудиодорожка: нет
    Субтитры подготовлены: нет

    Главный режиссер: Франко Кастеллано / Franco Castellano, Джузеппе Моччиа / Giuseppe Moccia

    Актеры:
    Адриано Челентано (Adriano Celentano), Сильва Кошина (Sylva Koscina), Эдуидж Фенек (Edwige Fenech), Ренато Сальватори (Renato Salvatori), Пиппо Сантонастасо (Pippo Santonastaso)...

    Сюжет:
    Профессиональный карточный шулер по кличке Туз накануне свадьбы объявляет о своем решении завязать. Но неожиданно оказывается втянутым в крупную игру с Марсельцем. Молодая жена отпускает его на эту игру. Отчаянно блефуя, он срывает банк, но игра продолжается.
    На него начинается охота и его убивает наемный убийца, после чего Туз превращается в… привидение, которое не может видеть никто, кроме его жены. Обретя таким трагическим образом новые возможности, он старается пристроить свою вдову и отомстить…



    Исходник: DVD5 R5
    Тип релиза: DVDRip
    Контейнер: AVI

    Информация о видео: 672x400 (1.680:1), 25 fps, XviD ~ 1007 kbps avg, 0.150 bit/pixel
    Информация о звуке: 48 kHz, MP3 2.0, 128 kbps

    Раздача от:
    MediaInfo

    Общее
    Полное имя : Tuz.1981.DVDRip-745_New-team_by_AVP_Studio.avi
    Формат : AVI
    Формат/Информация : Audio Video Interleave
    Размер файла : 744 Мбайт
    Продолжительность : 1 ч. 30 м.
    Общий поток : 1145 Кбит/сек
    Программа кодирования : VirtualDubModRus 1.5.10.2 (build 2542/release)
    Библиотека кодирования : VirtualDubMod build 2542/release

    Видео
    Идентификатор : 0
    Формат : MPEG-4 Visual
    Профиль формата : Advanced Simple@L5
    Параметр BVOP формата : 1
    Параметр QPel формата : Нет
    Параметр GMC формата : Без точки перехода
    Параметр матрицы формата : Выборочная
    Идентификатор кодека : XVID
    Идентификатор кодека/Подсказка : XviD
    Продолжительность : 1 ч. 30 м.
    Битрейт : 1007 Кбит/сек
    Ширина : 672 пикселя
    Высота : 400 пикселей
    Соотношение сторон : 1,680
    Частота кадров : 25,000 кадров/сек
    Цветовое пространство : YUV
    Субдискретизация насыщенности : 4:2:0
    Битовая глубина : 8 бит
    Тип развёртки : Прогрессивная
    Метод сжатия : С потерями
    Бит/(Пиксели*Кадры) : 0.150
    Размер потока : 655 Мбайт (88%)
    Библиотека кодирования : XviD 73

    Аудио
    Идентификатор : 1
    Формат : MPEG Audio
    Версия формата : Version 1
    Профиль формата : Layer 3
    Идентификатор кодека : 55
    Идентификатор кодека/Подсказка : MP3
    Продолжительность : 1 ч. 30 м.
    Вид битрейта : Постоянный
    Битрейт : 128 Кбит/сек
    Каналы : 2 канала
    Частота : 48,0 КГц
    Метод сжатия : С потерями
    Размер потока : 83,2 Мбайт (11%)
    Выравнивание : Соединение по промежуткам
    Продолжительность промежутка : 40 мс. (1,00 видеокадр)
    Время предзагрузки промежутка : 504 мс.
    Библиотека кодирования : LAME3.99r
    Залил: AVPStudio
    Размер скачиваемого торрента: 744.03 MB (780173312 Bytes)


    Туз / Asso (1981) DVDRip от New-Team скачать через торрент бесплатно
    загрузка...
    Рейтинг →
     (голосов: 1, оценка 4/5, голосовать можно 1 раз )

    Другие торренты по теме:

  • Крестовый Туз (Владимир Козырев) - Коллекция (1998-2011) МР3 от IMA-Sound
  • Туз / Asso (1981) DVDRip-AVC от New-Team скачать через торрент бесплатно
  • Туз / Asso (1981) BDRip 1080p | P, A
  • Karen ТУЗ - Дискография (2009-2017) МР3 от ImperiaFilm


    • Комментарии (0):

      Информация

      Информация

        Посетители, находящиеся в группе Гости, не могут оставлять комментарии в данной новости.

        ↓ Меню



        ↓ Опрос

        А Вы добавили сайт в закладки?
        Да
        Не


        Top 10 за месяц (Фильмы)