.
Авторизация | Регистрация
» » Ничего не бойся / Nothing Left to Fear (2013) BDRip 720p | L2 скачать через торрент бесплатно




    Ничего не бойся / Nothing Left to Fear (2013) BDRip 720p | L2 скачать через торрент бесплатно

    Опубликовал: Админ | Дата: 27-02-2015, 11:09 | Просмотров: 254



    Детально о кино
    Русское название: Ничего не бойся
    Русское название в мировом прокате: Nothing Left to Fear
    Создали в: 2013
    Категория жанра: Ужасы
    Главный режиссер: Энтони Леонарди III
    Актеры: Клэнси Браун, Энн Хеч, Дженнифер Стоун, Этан Пек, Ребека Брандес, Джеймс Таппер, Хезер Руп, Мишель ДеВито, Дж.Д. Эвермор, Уэйн Пер

    Сюжет фильма:
    В поисках новой работы и лучшей жизни добропорядочная семья переезжает в маленький безмятежный городок Сталл в штате Канзас. Кто бы знал, что согласно древней легенде именно в Сталле находится одно из семи врат ада, через которые время от времени на землю выбирается сам дьявол…




    Снималось в: США
    Киностудия: Midlife Crisis Productions, Movie Package Company (MPC), Prime Focus, Slasher Films, Upload Films
    Время просмотра: 01:40:23
    Перевод текста: Любительский двухголосый закадровый

    Файл
    Кодек для видео: MPEG-4 AVC
    Качество фильма: BDRip (720p)
    Информация о видео: 5586 Кбит/с, 1280x544
    Информация о звуке: Русский (AC3, 2 ch, 192 Кбит/с), английский (AC3, 6 ch, 640 Кбит/с)
    Субтитры: Английские



    MediaInfo
    Общее
    Уникальный идентификатор : 239846976957662124031653960107991755335 (0xB470D8F5B7AEDEADAC8E5B1796BBEA47)
    Полное имя : D:Nothing.Left.to.Fear.2013.BDRip.720p.INTERCINEMA.mkv
    Формат : Matroska
    Версия формата : Version 2
    Размер файла : 4,50 Гбайт
    Продолжительность : 1 ч. 40 м.
    Общий поток : 6418 Кбит/сек
    Дата кодирования : UTC 2013-10-09 13:41:24
    Программа кодирования : mkvmerge v5.8.0 (;No Sleep / Pillow;) built on Sep 2 2012 15:37:04
    Библиотека кодирования : libebml v1.2.3 libmatroska v1.3.0

    Видео
    Идентификатор : 1
    Формат : AVC
    Формат/Информация : Advanced Video Codec
    Профиль формата : High@L4.1
    Параметр CABAC формата : Да
    Параметр ReFrames формата : 5 кадров
    Режим смешивания : Header stripping
    Идентификатор кодека : V_MPEG4/ISO/AVC
    Продолжительность : 1 ч. 40 м.
    Битрейт : 5586 Кбит/сек
    Ширина : 1280 пикселей
    Высота : 544 пикселя
    Соотношение сторон : 2,35:1
    Режим частоты кадров : Постоянный
    Частота кадров : 23,976 кадра/сек
    Цветовое пространство : YUV
    Субдискретизация насыщенности : 4:2:0
    Битовая глубина : 8 бит
    Тип развёртки : Прогрессивная
    Бит/(Пиксели*Кадры) : 0.335
    Размер потока : 3,83 Гбайт (85%)
    Библиотека кодирования : x264 core 133 r2334 a3ac64b
    Настройки программы : cabac=1 / ref=5 / deblock=1:0:0 / analyse=0x3:0x133 / me=umh / subme=7 / psy=1 / psy_rd=1.00:0.00 / mixed_ref=1 / me_range=16 / chroma_me=1 / trellis=1 / 8x8dct=1 / cqm=0 / deadzone=21,11 / fast_pskip=0 / chroma_qp_offset=-2 / threads=12 / lookahead_threads=2 / sliced_threads=0 / nr=0 / decimate=1 / interlaced=0 / bluray_compat=0 / constrained_intra=0 / bframes=3 / b_pyramid=2 / b_adapt=2 / b_bias=0 / direct=3 / weightb=1 / open_gop=0 / weightp=2 / keyint=240 / keyint_min=23 / scenecut=40 / intra_refresh=0 / rc_lookahead=50 / rc=2pass / mbtree=1 / bitrate=5586 / ratetol=1.0 / qcomp=0.60 / qpmin=0 / qpmax=69 / qpstep=4 / cplxblur=20.0 / qblur=0.5 / ip_ratio=1.40 / aq=1:1.00
    Язык : English
    Default : Да
    Forced : Нет

    Аудио #1
    Идентификатор : 2
    Формат : AC-3
    Формат/Информация : Audio Coding 3
    Расширение режима : CM (complete main)
    Параметр Endianness формата : Big
    Режим смешивания : Header stripping
    Идентификатор кодека : A_AC3
    Продолжительность : 1 ч. 40 м.
    Вид битрейта : Постоянный
    Битрейт : 192 Кбит/сек
    Каналы : 2 канала
    Расположение каналов : Front: L R
    Частота : 48,0 КГц
    Битовая глубина : 16 бит
    Метод сжатия : С потерями
    Задержка видео : 1 с. 500 мс.
    Размер потока : 138 Мбайт (3%)
    Default : Нет
    Forced : Нет

    Аудио #2
    Идентификатор : 3
    Формат : AC-3
    Формат/Информация : Audio Coding 3
    Расширение режима : CM (complete main)
    Параметр Endianness формата : Big
    Режим смешивания : Header stripping
    Идентификатор кодека : A_AC3
    Продолжительность : 1 ч. 40 м.
    Вид битрейта : Постоянный
    Битрейт : 640 Кбит/сек
    Каналы : 6 каналов
    Расположение каналов : Front: L C R, Side: L R, LFE
    Частота : 48,0 КГц
    Битовая глубина : 16 бит
    Метод сжатия : С потерями
    Размер потока : 460 Мбайт (10%)
    Язык : English
    Default : Да
    Forced : Нет

    Текст
    Идентификатор : 4
    Формат : UTF-8
    Идентификатор кодека : S_TEXT/UTF8
    Идентификатор кодека/Информация : UTF-8 Plain Text
    Язык : English
    Default : Да
    Forced : Нет

    Скриншоты для ознакомления




    Релиз подготовил:
    Размер скачиваемого торрента: 4.50 GB (4833444593 Bytes)

    Ничего не бойся / Nothing Left to Fear (2013) BDRip 720p | L2 скачать через торрент бесплатно
    загрузка...
    Рейтинг →
     (голосов: 1, оценка 3/5, голосовать можно 1 раз )

    Другие торренты по теме:

  • Секс и ничего лишнего / My Awkward Sexual Adventure (2012) DVD5 от Youtracker | лицензия | сжатый торрент скачать бесплатно
  • Вы еще ничего не видели / Vous navez encore rien vu (2012) HDRip торрент скачать бесплатно
  • Ничего не вижу, ничего не слышу / See No Evil, Hear No Evil (1989) BDRip 1080p торрент скачать бесплатно
  • Никто не знает ничего / Nobody Knows Anything! (2003) BDRemux 1080i торрент скачать бесплатно
  • Вадяра Блюз - Ничего смешного (2013) MP3 торрент скачать бесплатно
  • Ничья земля / No Mans Land (1987) HDTVRip | P2 торрент скачать бесплатно
  • Ничего себе поездочка / Joy Ride (2001) HDTVRip-AVC | D, P торрент скачать бесплатно
  • Ничего себе поездочка 2: Смерть впереди / Joy Ride 2: Dead Ahead (2008) WEB-DLRip-AVC торрент скачать бесплатно


    • Комментарии (0):

      Информация

      Информация

        Посетители, находящиеся в группе Гости, не могут оставлять комментарии в данной новости.

        ↓ Меню



        ↓ Опрос

        А Вы добавили сайт в закладки?
        Да
        Не


        Top 10 за неделю (Фильмы)

        Ёлки 5 (2016) WEB-DLRip скачать торрент бесплатно

        (просмотров: 2481)
        Разрушение / Demolition (2015) BDRemux 1080p от ExKinoRay | L скачать торрент бесплатно

        (просмотров: 1111)
        Мой парень – киллер / Mr. Right (2015) WEB-DL 1080p | L скачать торрент бесплатно

        (просмотров: 1051)
        Экипаж (2016) BDRip от New-Team | D | Лицензия скачать торрент бесплатно
        АНОНСЫ МОИХ РАЗДАЧ
        (просмотров: 901)
        Экипаж (2016) BDRip от New-Team | D | Лицензия скачать торрент бесплатно
        АНОНСЫ МОИХ РАЗДАЧ
        (просмотров: 901)
        Гений / Genius (2016) WEB-DLRip 1080p | Звук TS скачать торрент бесплатно

        (просмотров: 891)
        Демон внутри / Вскрытие Джейн Доу / The Autopsy of Jane Doe (2016) WEB-DLRip от Scarabey | P скачать торрент бесплатно
        Мы В КОНТАКТЕ =)
        (просмотров: 811)
        Кухня (1-5 сезоны: 1-100 серии из 100 + 2 бонуса) / 2012-2015 / РУ / DVDRip, WEB-DLRip скачать торрент бесплатно

        (просмотров: 811)
        Бригада (2002) HDDVDRip-AVC от TORRENT-45

        (просмотров: 811)
        Равные / Equals (2015) WEB-DLRip | L2 скачать торрент бесплатно

        (просмотров: 811)