.
Авторизация | Регистрация
Хочешь лучшие торренты? Добавь свой email!
Добавить
» » Университетский вампир / Vamp U (2013) HDRip от Deadmauvlad | НТВ скачать через торрент бесплатно




    Университетский вампир / Vamp U (2013) HDRip от Deadmauvlad | НТВ скачать через торрент бесплатно

    Опубликовал: Админ | Дата: 27-02-2015, 11:09 | Просмотров: 295

    Университетский вампир / Vamp U





    Создали в: 2013
    Снималось в: США
    Категория жанра: ужасы, боевик, комедия
    Время просмотра: 01:35:57
    Перевод текста: Профессиональный (двухголосый) НТВ
    Субтитры: Отсутствуют


    Главный режиссер: Мэтт Есперсен, Маклейн Нельсон


    Актеры: Джули Гонсало, Адам Джонсон, Алексис Нэп, Гэри Коул, Маклейн Нельсон, Мэтт Маттсон, Барт Джонсон, Клэр Нидерпрюэм, Фрэнки Леванджи, Джейк Ван Вагонер


    Сюжет: 300 лет назад вампир Уэйн Грецки утратил способность вампирствовать после потери любви всей жизни. В наши дни он коллежский профессор, однако вампирическое проклятие продолжает преследовать его ..








    Релиз-группа

    Автор Рипа



    Качество фильма: HDRip Vamp.U.2013.1080p.BluRay.x264-PublicHD
    Тип видео: AVI
    Информация о видео кодек: XviD 7.3
    Информация о звуке кодек: AC3
    Информация о видео: 720x400 (1.80:1), 23.976 fps, XviD build 73 ~952 kbps avg, 0.14 bit/pixel
    Информация о звуке: 48 kHz, AC3 Dolby Digital, 2/0 (L,R) ch, ~128 kbps


    NFO
    Общее
    Полное имя : C:UsersDeadmauvladDesktopРелизы На выкладкуVamp.U.2013.P.HDRip.Deadmauvlad.Goldenshara.avi
    Формат : AVI
    Формат/Информация : Audio Video Interleave
    Размер файла : 748 Мбайт
    Продолжительность : 1 ч. 35 м.
    Общий поток : 1090 Кбит/сек
    Название фильма : Vamp.U.2013.P.HDRip.Deadmauvlad.Goldenshara
    Режиссёр : Deadmauvlad R.G Goldenshara
    Жанр : Ужасы
    Программа кодирования : VirtualDubMod 1.5.10.3 | www.virtualdub-fr.org || (build 2550/release)
    Формат оригинала/Имя : Фильм
    Правообладатель : http://goldenshara.com/

    Видео
    Идентификатор : 0
    Формат : MPEG-4 Visual
    Профиль формата : Advanced Simple@L5
    Параметр BVOP формата : 1
    Параметр QPel формата : Нет
    Параметр GMC формата : Без точки перехода
    Параметр матрицы формата : Default (MPEG)
    Идентификатор кодека : XVID
    Идентификатор кодека/Подсказка : XviD
    Продолжительность : 1 ч. 35 м.
    Битрейт : 952 Кбит/сек
    Ширина : 720 пикселей
    Высота : 400 пикселей
    Соотношение сторон : 16:9
    Частота кадров : 23,976 кадра/сек
    Цветовое пространство : YUV
    Субдискретизация насыщенности : 4:2:0
    Битовая глубина : 8 бит
    Тип развёртки : Прогрессивная
    Метод сжатия : С потерями
    Бит/(Пиксели*Кадры) : 0.138
    Размер потока : 654 Мбайт (87%)
    Библиотека кодирования : XviD 73

    Аудио
    Идентификатор : 1
    Формат : AC-3
    Формат/Информация : Audio Coding 3
    Расширение режима : CM (complete main)
    Параметр Endianness формата : Big
    Идентификатор кодека : 2000
    Продолжительность : 1 ч. 35 м.
    Вид битрейта : Постоянный
    Битрейт : 128 Кбит/сек
    Каналы : 2 канала
    Расположение каналов : Front: L R
    Частота : 48,0 КГц
    Битовая глубина : 16 бит
    Метод сжатия : С потерями
    Размер потока : 87,8 Мбайт (12%)
    Выравнивание : Соединение по промежуткам
    Продолжительность промежутка : 42 мс. (1,00 видеокадр)
    Время предзагрузки промежутка : 512 мс.

    Скриншоты для ознакомления




    Залил: DJ_V.K_TV
    Размер скачиваемого торрента: 747.95 MB (784282168 Bytes)

    Университетский вампир / Vamp U (2013) HDRip от Deadmauvlad | НТВ скачать через торрент бесплатно
    загрузка...
    Рейтинг →
     (голосов: 1, оценка 5/5, голосовать можно 1 раз )

    Другие торренты по теме:

  • Университетский вампир / Vamp U (2013) WEB-DLRip | НТВ
  • Университетский вампир / Vamp U (2013) WEB-DL 720p от CINEMANIA | НТВ
  • Университетский вампир / Vamp U (2013) Blu-Ray | НТВ скачать через торрент бесплатно
  • Университетский вампир / Vamp U (2013) BDRip-AVC от MediaClub | P2 | НТВ скачать через торрент бесплатно
  • Университетский вампир / Vamp U (2013) BDRemux 1080p от ExKinoRay | Р2 скачать через торрент бесплатно
  • Университетский вампир / Vamp U (2013) BDRip от Rulya74 | НТВ скачать через торрент бесплатно
  • Университетский вампир / Vamp U (2013) BDRip-AVC | iPhone | P
  • Университетский вампир / Vamp U (2013) BDRip-AVC | iPad | P скачать через торрент бесплатно


    • Комментарии (0):

      Информация

      Информация

        Посетители, находящиеся в группе Гости, не могут оставлять комментарии в данной новости.

        ↓ Меню



        ↓ Опрос

        А Вы добавили сайт в закладки?
        Да
        Не


        Top 10 за месяц (Фильмы)