.
Авторизация | Регистрация
» » Щупальца 2 / Octopus 2: River of Fear (2001) DVDRip | P2 торрент скачать бесплатно




    Щупальца 2 / Octopus 2: River of Fear (2001) DVDRip | P2 торрент скачать бесплатно

    Опубликовал: Админ | Дата: 27-02-2015, 11:09 | Просмотров: 482



    Детально о кино
    Русское название: Щупальца 2
    Русское название в мировом прокате: Octopus 2: River of Fear
    Создали в: 2001
    Категория жанра: ужасы
    Главный режиссер: Йосси Вейн
    Актеры: Майкл Рейли Бурк, Мередит Мортон, Фредрик Лене, Джон Тадеус, Крис Уильямс, Стоян Ангелов, Пол Винсент О’Коннор, Клемент Блейк, Дункан Фрайзер, Виолета Марковска

    Сюжет фильма:
    Приближается День Независимости, и в этом году жители Нью-Йорка решили отметить его, устроив большой водный праздник. Однако они не знают, что в последнее время на городских берегах, пристанях и в воде таинственным образом гибнут и бесследно исчезают люди. Обеспокоенные непонятными трагическими инцидентами, которые происходят всё чаще и чаще, эту проблему пытаются решить шеф отряда береговой полиции Ник Харфилд и скромная работница мэрии Рейчел Старбёрд, подозревающие, что под гладью нью-йоркских бухт скрывается кровожадный гигантский спрут. Одинокие в своей уверенности, они начинают охоту за морским чудовищем, которое намеревается испортить горожанам праздник, превратив его в День Смерти.




    Снималось в: США
    Киностудия: Martien Holdings A.V.V., Nu Image Films
    Время просмотра: 01:30:32
    Перевод текста: Профессиональный (двухголосый закадровый)

    Файл
    Кодек для видео: XviD
    Качество фильма: DVDRip
    Информация о видео: 640x480 (4:3), 1960 kbps, 25.000 fps
    Информация о звуке: AC-3, 320 kbps, 3/2 (L,C,R,l,r) LFE ch, 48.0 kHz
    Субтитры: нет

    Сэмпл, скачать

    MediaInfo
    General
    Complete name : щупалка2.avi
    Format : AVI
    Format/Info : Audio Video Interleave
    File size : 1.45 GiB
    Duration : 1h 30mn
    Overall bit rate : 2 290 Kbps
    Writing application : VirtualDubMod 1.5.10.2 (build 2540/release)
    Writing library : VirtualDubMod build 2540/release

    Video
    ID : 0
    Format : MPEG-4 Visual
    Format profile : Advanced Simple@L5
    Format settings, BVOP : 1
    Format settings, QPel : No
    Format settings, GMC : No warppoints
    Format settings, Matrix : Default (H.263)
    Codec ID : XVID
    Codec ID/Hint : XviD
    Duration : 1h 30mn
    Bit rate : 1 960 Kbps
    Width : 640 pixels
    Height : 480 pixels
    Display aspect ratio : 4:3
    Frame rate : 25.000 fps
    Color space : YUV
    Chroma subsampling : 4:2:0
    Bit depth : 8 bits
    Scan type : Progressive
    Compression mode : Lossy
    Bits/(Pixel*Frame) : 0.255
    Stream size : 1.24 GiB (86%)
    Writing library : XviD 1.2.1 (UTC 2008-12-04)

    Audio
    ID : 1
    Format : AC-3
    Format/Info : Audio Coding 3
    Mode extension : CM (complete main)
    Format settings, Endianness : Big
    Codec ID : 2000
    Duration : 1h 30mn
    Bit rate mode : Constant
    Bit rate : 320 Kbps
    Channel(s) : 6 channels
    Channel positions : Front: L C R, Side: L R, LFE
    Sampling rate : 48.0 KHz
    Bit depth : 16 bits
    Compression mode : Lossy
    Stream size : 207 MiB (14%)
    Alignment : Split accross interleaves
    Interleave, duration : 40 ms (1.00 video frame)
    Interleave, preload duration : 500 ms
    Скриншоты для ознакомления

    Размер скачиваемого торрента: 1.45 GB (1554704384 Bytes)

    Щупальца 2 / Octopus 2: River of Fear (2001) DVDRip | P2 торрент скачать бесплатно
    загрузка...
    Рейтинг →
     (голосов: 1, оценка 5/5, голосовать можно 1 раз )

    Другие торренты по теме:



      Комментарии (0):

      Информация

      Информация

        Посетители, находящиеся в группе Гости, не могут оставлять комментарии в данной новости.

        ↓ Меню



        ↓ Опрос

        А Вы добавили сайт в закладки?
        Да
        Не


        Top 10 за неделю (Фильмы)