.
Авторизация | Регистрация
Хочешь лучшие торренты? Добавь свой email!
Добавить
» » Прощай, Эммануэль / Goodbye, Emmanuelle (1977) BDRip by msltel | L1 торрент скачать бесплатно




    Прощай, Эммануэль / Goodbye, Emmanuelle (1977) BDRip by msltel | L1 торрент скачать бесплатно

    Опубликовал: Админ | Дата: 27-02-2015, 11:09 | Просмотров: 395



    Русское название: Прощай, Эммануэль
    Русское название в мировом прокате: Goodbye Emmanuelle
    Создали в: 1977
    Категория жанра: Эротикa, мелодрама
    Снималось в: Франция, Trinacra Films, Parafrance Films
    Главный режиссер: Франсуа Летерье
    Актеры: Сильвия Кристель, Умберто Орсини, Сильви Феннек, Жан-Пьер Бувье, Александра Стюарт, Ольга Жорж-Пико, Эрик Колен, Шарлотт Александра, Каролина Лоранс, Джек Аллен, Жак Дониоль-Валькроз, Грег Жермен, Боб Асклеф, Патрик Виктор

    Сюжет фильма: Она была рьяной искательницей эротических приключений, никогда не прекращающей своей неистовой гонки за наслаждением. И вдруг произошло совершенно невероятное. Исполненная сексуальной свободы, Эммануэль попадает в классическую, но парадоксальную, ситуацию — ситуацию Любви с большой буквы. Страстно и безоглядно она порывает с привычной жизнью, влекомая этим неведомым доселе чувством.

    Качество фильма: BDRip
    Информация о видео: XviD,1576 Кбит/с, 720x304
    Информация о звуке: Русский, французский (AC3, 2 ch, 192 Кбит/с)
    Размер скачиваемого торрента: 1.35 ГБ
    Время просмотра: 01:38:10
    Перевод текста: Любительский одноголосый
    Субтитры: Русские, английские

    Исходник: Remux (HDTracker)

    Сравнение с исходником



    MediaInfo
    Общее
    Полное имя : E:VideoEmmanuelle.3.1977.XviD.BDRipEmmanuelle.3.1977.eng.srt
    Размер файла : 120 Кбайт

    Общее
    Полное имя : E:VideoEmmanuelle.3.1977.XviD.BDRipEmmanuelle.3.1977.Original.fre.ac3
    Формат : AC-3
    Формат/Информация : Audio Coding 3
    Размер файла : 135 Мбайт
    Продолжительность : 1 ч. 38 м.
    Режим общего битрейта : Постоянный
    Общий поток : 192 Кбит/сек

    Аудио
    Формат : AC-3
    Формат/Информация : Audio Coding 3
    Расширение режима : CM (complete main)
    Параметр Endianness формата : Big
    Продолжительность : 1 ч. 38 м.
    Вид битрейта : Постоянный
    Битрейт : 192 Кбит/сек
    Каналы : 2 канала
    Расположение каналов : Front: L R
    Частота : 48,0 КГц
    Битовая глубина : 16 бит
    Метод сжатия : С потерями
    Размер потока : 135 Мбайт (100%)

    Общее
    Полное имя : E:VideoEmmanuelle.3.1977.XviD.BDRipEmmanuelle.3.1977.XviD.BDRip.avi
    Формат : AVI
    Формат/Информация : Audio Video Interleave
    Размер файла : 1,22 Гбайт
    Продолжительность : 1 ч. 38 м.
    Общий поток : 1777 Кбит/сек
    Программа кодирования : VirtualDubMod 1.5.10.2 (build 2540/release)
    Библиотека кодирования : VirtualDubMod build 2540/release

    Видео
    Идентификатор : 0
    Формат : MPEG-4 Visual
    Профиль формата : Advanced Simple@L5
    Параметр BVOP формата : 1
    Параметр QPel формата : Нет
    Параметр GMC формата : Без точки перехода
    Параметр матрицы формата : Default (H.263)
    Режим смешивания : Сжатый битовый поток
    Идентификатор кодека : XVID
    Идентификатор кодека/Подсказка : XviD
    Продолжительность : 1 ч. 38 м.
    Битрейт : 1576 Кбит/сек
    Ширина : 720 пикселей
    Высота : 304 пикселя
    Соотношение сторон : 2,35:1
    Частота кадров : 23,976 кадра/сек
    Цветовое пространство : YUV
    Субдискретизация насыщенности : 4:2:0
    Битовая глубина : 8 бит
    Тип развёртки : Прогрессивная
    Метод сжатия : С потерями
    Бит/(Пиксели*Кадры) : 0.300
    Размер потока : 1,08 Гбайт (89%)
    Библиотека кодирования : XviD 1.2.1 (UTC 2008-12-04)

    Аудио
    Идентификатор : 1
    Формат : AC-3
    Формат/Информация : Audio Coding 3
    Расширение режима : CM (complete main)
    Параметр Endianness формата : Big
    Идентификатор кодека : 2000
    Продолжительность : 1 ч. 38 м.
    Вид битрейта : Постоянный
    Битрейт : 192 Кбит/сек
    Каналы : 2 канала
    Расположение каналов : Front: L R
    Частота : 48,0 КГц
    Битовая глубина : 16 бит
    Метод сжатия : С потерями
    Размер потока : 135 Мбайт (11%)
    Выравнивание : Разделение по промежуткам
    Продолжительность промежутка : 42 мс. (1,00 видеокадр)
    Время предзагрузки промежутка : 500 мс.
    Скриншоты для ознакомления



    Залил: msltel
    Размер скачиваемого торрента: 1.35 GB (1450177666 Bytes)

    Прощай, Эммануэль / Goodbye, Emmanuelle (1977) BDRip by msltel | L1 торрент скачать бесплатно
    загрузка...
    Рейтинг →
     (голосов: 1, оценка 4/5, голосовать можно 1 раз )

    Другие торренты по теме:

  • Прощай, Эммануэль / Goodbye, Emmanuelle (1977) BDRip 720p by msltel | L1
  • Прощай, Эммануэль / Goodbye Emmanuelle (1977) BDRip-AVC от MediaClub | L1 скачать через торрент бесплатно
  • Прощай, Эммануэль / Goodbye Emmanuelle (1977) BDRip 1080p by msltel | L1 скачать через торрент бесплатно


    • Комментарии (0):

      Информация

      Информация

        Посетители, находящиеся в группе Гости, не могут оставлять комментарии в данной новости.

        ↓ Меню



        ↓ Опрос

        А Вы добавили сайт в закладки?
        Да
        Не


        Top 10 за месяц (Фильмы)