.
Авторизация | Регистрация
» » Va-банк / Runner Runner (2013) BDRip-AVC от MediaClub | D | Чистый звук торрент скачать бесплатно




    Va-банк / Runner Runner (2013) BDRip-AVC от MediaClub | D | Чистый звук торрент скачать бесплатно

    Опубликовал: Админ | Дата: 27-02-2015, 11:09 | Просмотров: 247



    Детально о кино
    Русское название: Va-банк
    Русское название в мировом прокате: Runner Runner
    Создали в: 2013
    Категория жанра: Триллер, драма, криминал
    Главный режиссер: Брэд Фурман
    Актеры: Джастин Тимберлэйк, Бен Аффлек, Джемма Артертон, Энтони Маки, Майкл Эспер, Оливер Купер, Кристиан Джордж, Юл Васкез, Джон Хёрд, Джеймс Молина

    Сюжет фильма:
    Чтобы оплачивать учёбу в колледже, Ричи погружается в мир азартных игр онлайн. Когда удача изменяет ему, он отправляется на Коста-Рику, чтобы помериться силами с настоящим асом игрового бизнеса. Тот видит в Ричи родственную душу и вводит его в свою игру. Но когда степень опасности возрастает, а ставки достигают невероятных высот, Ричи вдруг отчётливо понимает, что его новый босс вот-вот совершит непоправимое, и пытается поменяться с ним ролями.



    Официальный сайт

    Снималось в: США / Appian Way, Double Feature Films, New Regency Pictures, Paragon Studios, Stone Village Productions
    Время просмотра: 01:31:39
    Перевод текста: Профессиональный (полное дублирование) - Чистый звук

    Файл
    Кодек для видео: x264
    Качество фильма: BDRip-AVC
    Информация о видео: MPEG-4 AVC, 2644 Кбит/с, 1024х426, 23.976 кадр/с
    Информация о звуке: Русский, английский (AC3, 6 ch, 384 Кбит/с)
    Субтитры: Английские

    Семпл

    MI
    x264 info: frame I:1012 Avg QP:16.50 size: 76559
    x264 info: frame P:29471 Avg QP:19.47 size: 25860
    x264 info: frame B:101181 Avg QP:21.22 size: 9618

    Format : Matroska
    Format version : Version 4 / Version 2
    File size : 2.18 GiB
    Duration : 1h 31mn
    Overall bit rate : 3 411 Kbps
    Movie name : -=MediaClub - Odessit=-
    Encoded date : UTC 2013-12-23 06:22:10
    Writing application : mkvmerge v6.1.0 (;Old Devil;) built on Mar 4 2013 09:10:42
    Writing library : libebml v1.3.0 libmatroska v1.4.0

    Video
    ID : 1
    Format : AVC
    Format/Info : Advanced Video Codec
    Format profile : High@L4.1
    Format settings, CABAC : Yes
    Format settings, ReFrames : 9 frames
    Codec ID : V_MPEG4/ISO/AVC
    Duration : 1h 31mn
    Bit rate : 2 644 Kbps
    Width : 1 024 pixels
    Height : 426 pixels
    Display aspect ratio : 2.40:1
    Frame rate : 23.976 fps
    Color space : YUV
    Chroma subsampling : 4:2:0
    Bit depth : 8 bits
    Scan type : Progressive
    Bits/(Pixel*Frame) : 0.253
    Stream size : 1.65 GiB (75%)
    Writing library : x264 core 130 r2273 b3065e6
    Encoding settings : cabac=1 / ref=9 / deblock=1:-3:-3 / analyse=0x3:0x133 / me=umh / subme=11 / psy=1 / psy_rd=1.00:0.20 / mixed_ref=1 / me_range=48 / chroma_me=1 / trellis=2 / 8x8dct=1 / cqm=0 / deadzone=21,11 / fast_pskip=0 / chroma_qp_offset=-3 / threads=6 / lookahead_threads=1 / sliced_threads=0 / nr=0 / decimate=0 / interlaced=0 / bluray_compat=0 / constrained_intra=0 / bframes=10 / b_pyramid=2 / b_adapt=2 / b_bias=0 / direct=3 / weightb=1 / open_gop=0 / weightp=2 / keyint=240 / keyint_min=23 / scenecut=40 / intra_refresh=0 / rc=2pass / mbtree=0 / bitrate=2644 / ratetol=1.0 / qcomp=0.60 / qpmin=0 / qpmax=69 / qpstep=4 / cplxblur=20.0 / qblur=0.5 / ip_ratio=1.40 / pb_ratio=1.30 / aq=1:1.00
    Language : English

    Audio #1
    ID : 2
    Format : AC-3
    Format/Info : Audio Coding 3
    Mode extension : CM (complete main)
    Codec ID : A_AC3
    Duration : 1h 31mn
    Bit rate mode : Constant
    Bit rate : 384 Kbps
    Channel(s) : 6 channels
    Channel positions : Front: L C R, Side: L R, LFE
    Sampling rate : 48.0 KHz
    Bit depth : 16 bits
    Compression mode : Lossy
    Stream size : 251 MiB (11%)
    Title : Дублированный (Line)
    Language : Russian

    Audio #2
    ID : 3
    Format : AC-3
    Format/Info : Audio Coding 3
    Mode extension : CM (complete main)
    Codec ID : A_AC3
    Duration : 1h 31mn
    Bit rate mode : Constant
    Bit rate : 384 Kbps
    Channel(s) : 6 channels
    Channel positions : Front: L C R, Side: L R, LFE
    Sampling rate : 48.0 KHz
    Bit depth : 16 bits
    Compression mode : Lossy
    Stream size : 251 MiB (11%)
    Language : English

    Text
    ID : 4
    Format : UTF-8
    Codec ID : S_TEXT/UTF8
    Codec ID/Info : UTF-8 Plain Text
    Language : English

    Menu
    00:00:00.000 : en:00:00:00.000
    00:03:08.814 : en:00:03:08.814
    00:05:47.973 : en:00:05:47.973
    00:08:43.857 : en:00:08:43.857
    00:11:16.384 : en:00:11:16.384
    00:13:34.647 : en:00:13:34.647
    00:15:13.913 : en:00:15:13.913
    00:16:55.765 : en:00:16:55.765
    00:19:46.602 : en:00:19:46.602
    00:24:24.505 : en:00:24:24.505
    00:27:07.334 : en:00:27:07.334
    00:31:01.943 : en:00:31:01.943
    00:32:59.811 : en:00:32:59.811
    00:36:30.605 : en:00:36:30.605
    00:38:40.026 : en:00:38:40.026
    00:43:36.906 : en:00:43:36.906
    00:46:38.087 : en:00:46:38.087
    00:48:37.706 : en:00:48:37.706
    00:53:03.555 : en:00:53:03.555
    00:54:38.609 : en:00:54:38.609
    00:57:18.644 : en:00:57:18.644
    01:00:38.885 : en:01:00:38.885
    01:03:17.669 : en:01:03:17.669
    01:08:48.833 : en:01:08:48.833
    01:13:04.797 : en:01:13:04.797
    01:16:45.935 : en:01:16:45.935
    01:21:22.961 : en:01:21:22.961
    01:25:32.502 : en:01:25:32.502

    Скриншоты для ознакомления


    Релиз подготовил: |
    Размер скачиваемого торрента: 2.18 GB (2341455975 Bytes)

    Va-банк / Runner Runner (2013) BDRip-AVC от MediaClub | D | Чистый звук торрент скачать бесплатно
    загрузка...
    Рейтинг →
     (голосов: 1, оценка 5/5, голосовать можно 1 раз )

    Другие торренты по теме:

  • LS · Банк 2.00 (2013) PC торрент скачать бесплатно
  • Va-банк / Runner Runner (2013) CAMRip от INTERCINEMA скачать через торрент бесплатно
  • Ва-банк-хит - Магнитоальбом (1993) FLAC скачать через торрент бесплатно
  • Ва-банк / Vabank (1981) HDTVRip от New-Team торрент скачать бесплатно
  • Ва-банк II, или Ответный удар / Vabank II czyli riposta (1984) HDTVRip от New-Team скачать через торрент бесплатно
  • Ва-банк / Vabank (1981) HDTVRip-AVC от New-Team скачать через торрент бесплатно
  • Винчи, или Ва-банк 3 / Vinci (2004) DVDRip от New-Team торрент скачать бесплатно
  • Ва-банк II, или Ответный удар / Vabank II czyli riposta (1984) HDTVRip-AVC от New-Team торрент скачать бесплатно


    • Комментарии (0):

      Информация

      Информация

        Посетители, находящиеся в группе Гости, не могут оставлять комментарии в данной новости.

        ↓ Меню



        ↓ Опрос

        А Вы добавили сайт в закладки?
        Да
        Не


        Top 10 за неделю (Фильмы)