.
Авторизация | Регистрация
» » Медвежатник / The Score (2001) BDRip от New-Team скачать через торрент бесплатно




    Медвежатник / The Score (2001) BDRip от New-Team скачать через торрент бесплатно

    Опубликовал: Админ | Дата: 27-02-2015, 11:09 | Просмотров: 306


    Снималось в: США, Германия
    Создали в: Cineartists AG, Eagle Point Production, Horseshoe Bay Productions, Lee Rich Productions, Mandalay Pictures, Paramount Pictures
    Категория жанра: боевик, триллер, криминал
    Создали в: 2001
    Время просмотра: 02:04:01

    Перевод текста: Профессиональный (многоголосый закадровый) (R1)
    Оригинальная аудиодорожка: нет
    Субтитры подготовлены: нет

    Главный режиссер: Фрэнк Оз / Frank Oz

    Актеры:
    Роберт Де Ниро, Эдвард Нортон, Марлон Брандо, Анджела Бассетт, Гэри Фармер, Пол Соулз, Джэми Харольд, Серж Уд, Жан-Рене Уэлле, Мартин Дрэнвиль...

    Сюжет:
    Максу удается уговорить Ника Уэллса поступиться своими двумя самыми важными правилами: всегда работать в одиночку и никогда не грабить в своем городе. Макс нашел ему партнера. События начинают стремительно развиваться. Каждый из медвежатников старается обыграть другого. Планируемое ограбление держит всех в напряжении от начала и до конца. Развязка наступает неожиданно…




    Исходник: BDRemux 1080p
    Тип релиза: BDRip
    Контейнер: AVI

    Информация о видео: 672x288 (2,35:1), 23,976 fps, XviD ~ 707 kbps avg, 0.152 bit/pixel
    Информация о звуке: 48 kHz, MP3 2.0, 128 kbps

    Раздача от:
    MediaInfo

    Общее
    Полное имя : Medvezhatnik.2001.BDRip-745_New-team_by_AVP_Studio.avi
    Формат : AVI
    Формат/Информация : Audio Video Interleave
    Размер файла : 746 Мбайт
    Продолжительность : 2 ч. 3 м.
    Общий поток : 844 Кбит/сек
    Программа кодирования : VirtualDubModRus 1.5.10.2 (build 2542/release)
    Библиотека кодирования : VirtualDubMod build 2542/release

    Видео
    Идентификатор : 0
    Формат : MPEG-4 Visual
    Профиль формата : Advanced Simple@L5
    Параметр BVOP формата : 1
    Параметр QPel формата : Нет
    Параметр GMC формата : Без точки перехода
    Параметр матрицы формата : Выборочная
    Идентификатор кодека : XVID
    Идентификатор кодека/Подсказка : XviD
    Продолжительность : 2 ч. 3 м.
    Битрейт : 707 Кбит/сек
    Ширина : 672 пикселя
    Высота : 288 пикселей
    Соотношение сторон : 2,35:1
    Частота кадров : 23,976 кадра/сек
    Цветовое пространство : YUV
    Субдискретизация насыщенности : 4:2:0
    Битовая глубина : 8 бит
    Тип развёртки : Прогрессивная
    Метод сжатия : С потерями
    Бит/(Пиксели*Кадры) : 0.152
    Размер потока : 624 Мбайт (84%)
    Библиотека кодирования : XviD 73

    Аудио
    Идентификатор : 1
    Формат : MPEG Audio
    Версия формата : Version 1
    Профиль формата : Layer 3
    Идентификатор кодека : 55
    Идентификатор кодека/Подсказка : MP3
    Продолжительность : 2 ч. 3 м.
    Вид битрейта : Постоянный
    Битрейт : 128 Кбит/сек
    Каналы : 2 канала
    Частота : 48,0 КГц
    Метод сжатия : С потерями
    Размер потока : 113 Мбайт (15%)
    Выравнивание : Соединение по промежуткам
    Продолжительность промежутка : 42 мс. (1,00 видеокадр)
    Время предзагрузки промежутка : 504 мс.
    Библиотека кодирования : LAME3.99r
    Залил: AVPStudio
    Размер скачиваемого торрента: 745.59 MB (781809664 Bytes)


    Медвежатник / The Score (2001) BDRip от New-Team скачать через торрент бесплатно
    загрузка...
    Рейтинг →
     (голосов: 1, оценка 3/5, голосовать можно 1 раз )

    Другие торренты по теме:

  • Медвежатник / The Score (2001) HDRip от Scarabey | P торрент скачать бесплатно
  • Медвежатники / Safe Men (1998) DVDRip от Brazzass торрент скачать бесплатно
  • Медвежатник / The Score (2001) BDRip-AVC от New-Team скачать через торрент бесплатно
  • Медвежатник / The Score (2001) BDRip 1080p от denis 100 | P,A торрент скачать бесплатно
  • Медвежатник / The Score (2001) BDRip 1080p by msltel | 2 x P, 3 x A скачать торрент бесплатно


    • Комментарии (0):

      Информация

      Информация

        Посетители, находящиеся в группе Гости, не могут оставлять комментарии в данной новости.

        ↓ Меню



        ↓ Опрос

        А Вы добавили сайт в закладки?
        Да
        Не


        Top 10 за неделю (Фильмы)