.
Авторизация | Регистрация
» » Восставший из ада 4: Кровное родство / Hellraiser: Bloodline (1996) BDRip-AVC | P, A скачать через торрент бесплатно




    Восставший из ада 4: Кровное родство / Hellraiser: Bloodline (1996) BDRip-AVC | P, A скачать через торрент бесплатно

    Опубликовал: Админ | Дата: 27-02-2015, 11:09 | Просмотров: 272



    Восставший из ада 4: Кровное родство
    Hellraiser: Bloodline


    Снималось в: США
    Категория жанра: ужасы, фантастика
    Создали в: 1996
    Время просмотра: 01:24:44
    Перевод текста: Профессиональный (многоголосый закадровый) авторский (одноголосый закадровый)
    Субтитры подготовлены: отсутствуют

    Главный режиссер: Кевин Ягер / Kevin Yagher, Джо Чаппелль / Joe Chappelle

    Актеры: Даг Брэдли, Брюс Рэмсей, Валентина Варгас, Шарлотта Чаттон, Адам Скотт, Ким Майерс, Мики Коттрелл, Луи Тюренн, Кортленд Мид, Луис Мустилльо

    Сюжет:
    Жуткие события происходят в 2127-ом году на космической станции Минос, Доктор Мерчант, одержимый какими-то странными, безумными идеями, захватил станцию, чтобы провести в жизнь свои таинственные эксперименты, Доктора повязали, и он рассказал, как же он дошел до жизни такой, И выяснилось, что причина безумия доктора — в магическом кубике, изготовленном мастером игрушек Ле Маршаном еще несколько столетий назад.

    Качество фильма: BDRip-AVC
    Тип видео: MKV
    Информация о видео: MPEG-4 AVC, 1024x576 (16:9), 23.976 fps, ~4527 kbps, 0.320 bit/pixel
    Информация о звуке #1: Russian, Audio Coding 3, 48 kHz, DD 2.0 ch, CBR 192 kbps | многоголосый закадровый, R5
    Информация о звуке #2: Russian, Audio Coding 3, 48 kHz, DD 2.0 ch, CBR 192 kbps | одноголосый закадровый А.Гаврилов

    MediaInfo
    Format : Matroska
    Format version : Version 2
    File size : 2.91 GiB
    Duration : 1h 24mn
    Overall bit rate : 4 911 Kbps
    Encoded date : UTC 2012-08-10 13:32:28
    Writing application : mkvmerge v5.6.0 (;Kenya Kane;) built on May 27 2012 16:44:04
    Writing library : libebml v1.2.3 libmatroska v1.3.0

    Video
    ID : 1
    Format : AVC
    Format/Info : Advanced Video Codec
    Format profile : High@L4.1
    Format settings, CABAC : Yes
    Format settings, ReFrames : 14 frames
    Codec ID : V_MPEG4/ISO/AVC
    Duration : 1h 24mn
    Bit rate : 4 527 Kbps
    Width : 1 024 pixels
    Height : 576 pixels
    Display aspect ratio : 16:9
    Frame rate : 23.976 fps
    Color space : YUV
    Chroma subsampling : 4:2:0
    Bit depth : 8 bits
    Scan type : Progressive
    Bits/(Pixel*Frame) : 0.320
    Stream size : 2.62 GiB (90%)
    Title : Hellraiser: Bloodline
    Writing library : x264 core 125 r2200 999b753
    Encoding settings : cabac=1 / ref=14 / deblock=1:-1:-1 / analyse=0x3:0x113 / me=umh / subme=11 / psy=1 / psy_rd=1.00:0.15 / mixed_ref=1 / me_range=32 / chroma_me=1 / trellis=2 / 8x8dct=1 / cqm=0 / deadzone=21,11 / fast_pskip=0 / chroma_qp_offset=-3 / threads=12 / lookahead_threads=2 / sliced_threads=0 / nr=0 / decimate=1 / interlaced=0 / bluray_compat=0 / constrained_intra=0 / bframes=14 / b_pyramid=2 / b_adapt=2 / b_bias=0 / direct=3 / weightb=1 / open_gop=0 / weightp=2 / keyint=240 / keyint_min=23 / scenecut=40 / intra_refresh=0 / rc_lookahead=40 / rc=2pass / mbtree=1 / bitrate=4527 / ratetol=1.0 / qcomp=0.70 / qpmin=10 / qpmax=51 / qpstep=4 / cplxblur=20.0 / qblur=0.5 / ip_ratio=1.40 / aq=2:1.00
    Language : English
    Default : Yes
    Forced : No

    Audio #1
    ID : 2
    Format : AC-3
    Format/Info : Audio Coding 3
    Mode extension : CM (complete main)
    Format settings, Endianness : Big
    Codec ID : A_AC3
    Duration : 1h 24mn
    Bit rate mode : Constant
    Bit rate : 192 Kbps
    Channel(s) : 2 channels
    Channel positions : Front: L R
    Sampling rate : 48.0 KHz
    Bit depth : 16 bits
    Compression mode : Lossy
    Stream size : 116 MiB (4%)
    Title : MVO (R5)
    Language : Russian
    Default : Yes
    Forced : No

    Audio #2
    ID : 3
    Format : AC-3
    Format/Info : Audio Coding 3
    Mode extension : CM (complete main)
    Format settings, Endianness : Big
    Codec ID : A_AC3
    Duration : 1h 24mn
    Bit rate mode : Constant
    Bit rate : 192 Kbps
    Channel(s) : 2 channels
    Channel positions : Front: L R
    Sampling rate : 48.0 KHz
    Bit depth : 16 bits
    Compression mode : Lossy
    Stream size : 116 MiB (4%)
    Title : AVO (Гаврилов)
    Language : Russian
    Default : No
    Forced : No

    Menu
    00:00:00.000 : en:00:00:00.000
    00:05:34.166 : en:00:05:34.166
    00:10:17.950 : en:00:10:17.950
    00:18:36.656 : en:00:18:36.656
    00:24:00.771 : en:00:24:00.771
    00:26:31.047 : en:00:26:31.047
    00:30:51.266 : en:00:30:51.266
    00:37:28.204 : en:00:37:28.204
    00:41:56.847 : en:00:41:56.847
    00:49:31.217 : en:00:49:31.217
    00:53:01.927 : en:00:53:01.927
    00:59:31.525 : en:00:59:31.525
    01:02:01.675 : en:01:02:01.675
    01:08:54.380 : en:01:08:54.380
    01:14:17.869 : en:01:14:17.869
    Скриншоты для ознакомления

    Размер скачиваемого торрента: 2.91 GB (3121679723 Bytes)

    Восставший из ада 4: Кровное родство / Hellraiser: Bloodline (1996) BDRip-AVC | P, A скачать через торрент бесплатно
    загрузка...
    Рейтинг →
     (голосов: 1, оценка 3/5, голосовать можно 1 раз )

    Другие торренты по теме:

  • Восставший из ада 3: Ад на Земле / Hellraiser III: Hell on Earth (1992) BDRip торрент скачать бесплатно
  • Восставший из ада 3: Ад на Земле / Hellraiser III: Hell on Earth (1992) BDRemux 1080p скачать через торрент бесплатно
  • Восставший из ада 3: Ад на Земле / Hellraiser III: Hell on Earth (1992) BDRip-AVC | P, A скачать через торрент бесплатно
  • Восставший из ада 2 / Hellbound: Hellraiser 2 (1988) BDRip-AVC | P, A скачать через торрент бесплатно
  • Восставший из ада / Hellraiser (1987) BDRip-AVC | P, A скачать через торрент бесплатно
  • Восставший из ада 2 / Hellbound: Hellraiser II / (1988) BDRip by msltel | P, P2, A торрент скачать бесплатно
  • Восставший из ада 2 / Hellbound: Hellraiser II / (1988) BDRip 720p by msltel | P, P2, A торрент скачать бесплатно
  • Восставший из ада 4: Кровное родство / Hellraiser: Bloodline (1996) BDRip by msltel | P, A скачать через торрент бесплатно


    • Комментарии (0):

      Информация

      Информация

        Посетители, находящиеся в группе Гости, не могут оставлять комментарии в данной новости.

        ↓ Меню



        ↓ Опрос

        А Вы добавили сайт в закладки?
        Да
        Не


        Top 10 за неделю (Фильмы)