.
Авторизация | Регистрация
Хочешь лучшие торренты? Добавь свой email!
Добавить
» » Бесстрашный / Fearless (1993) BDRip 720p от MediaClub | P, A скачать через торрент бесплатно




    Бесстрашный / Fearless (1993) BDRip 720p от MediaClub | P, A скачать через торрент бесплатно

    Опубликовал: Админ | Дата: 27-02-2015, 11:09 | Просмотров: 298



    Детально о кино
    Русское название: Бесстрашный
    Русское название в мировом прокате: Fearless
    Создали в: 1993
    Категория жанра: Драма
    Главный режиссер: Питер Уир
    Актеры: Джефф Бриджес, Изабелла Росселлини, Рози Перес, Том Халс, Джон Туртурро, Бенисио Дель Торо, Дирдри О’Коннелл, Джон де Ланси, Спенсер Врумэн, Дэниел Черни

    Сюжет фильма:
    Макс Клейн выжил в ужасной авиакатастрофе, но это потрясение изменило всю его жизнь. Он больше не испытывает страха смерти и считает себя неуязвимым, отстранясь при этом от семьи и друзей. Но, следуя совету психиатра, Макс начинает общаться с убитой горем Карлой, которая также выжила в катастрофе, но потеряла в ней маленького сына. Быть может, если Максу удастся помочь Карле, он поможет и себе самому…



    Снималось в: США / Spring Creek Productions, Warner Bros. Pictures
    Время просмотра: 02:02:03
    Перевод текста: Профессиональный многоголосый, авторский

    Файл
    Кодек для видео: x264
    Качество фильма: BDRip 720p
    Информация о видео: MPEG-4 AVC, 7400 Кбит/с, 1280x720, 23.976 кадр/с
    Информация о звуке #1: Русский (AC3, 2 ch, 192 Кбит/с) / Профессиональный многоголосый (Россия)
    Информация о звуке #2: Русский (AC3, 2 ch, 192 Кбит/с) / Авторский одноголосый (Дольский)
    Информация о звуке #3: Английский (AC3, 2 ch, 192 Кбит/с)
    Субтитры: Русские, английские

    Семпл

    О релизе
    • За исходник спасибо CHD

    • Синхронизация звука kaspr

    • За постер спасибо: Media-Art-Club

    MI
    x264 info: frame I:1053 Avg QP:15.95 size:128346
    x264 info: frame P:34796 Avg QP:18.14 size: 67053
    x264 info: frame B:139734 Avg QP:19.64 size: 30777

    Format : Matroska
    Format version : Version 4 / Version 2
    File size : 6.80 GiB
    Duration : 2h 2mn
    Overall bit rate : 7 973 Kbps
    Movie name : -=MediaClub - Odessit=-
    Encoded date : UTC 2013-12-23 14:06:07
    Writing application : mkvmerge v6.1.0 (;Old Devil;) built on Mar 4 2013 09:10:42
    Writing library : libebml v1.3.0 libmatroska v1.4.0

    Video
    ID : 1
    Format : AVC
    Format/Info : Advanced Video Codec
    Format profile : High@L4.1
    Format settings, CABAC : Yes
    Format settings, ReFrames : 9 frames
    Codec ID : V_MPEG4/ISO/AVC
    Duration : 2h 2mn
    Bit rate : 7 400 Kbps
    Width : 1 280 pixels
    Height : 720 pixels
    Display aspect ratio : 16:9
    Frame rate : 23.976 fps
    Color space : YUV
    Chroma subsampling : 4:2:0
    Bit depth : 8 bits
    Scan type : Progressive
    Bits/(Pixel*Frame) : 0.335
    Stream size : 6.17 GiB (91%)
    Writing library : x264 core 130 r2273 b3065e6
    Encoding settings : cabac=1 / ref=9 / deblock=1:-3:-3 / analyse=0x3:0x133 / me=umh / subme=11 / psy=1 / psy_rd=1.00:0.20 / mixed_ref=1 / me_range=48 / chroma_me=1 / trellis=2 / 8x8dct=1 / cqm=0 / deadzone=21,11 / fast_pskip=0 / chroma_qp_offset=-3 / threads=6 / lookahead_threads=1 / sliced_threads=0 / nr=0 / decimate=0 / interlaced=0 / bluray_compat=0 / constrained_intra=0 / bframes=13 / b_pyramid=2 / b_adapt=2 / b_bias=0 / direct=3 / weightb=1 / open_gop=0 / weightp=2 / keyint=240 / keyint_min=23 / scenecut=40 / intra_refresh=0 / rc=2pass / mbtree=0 / bitrate=7400 / ratetol=1.0 / qcomp=0.60 / qpmin=0 / qpmax=69 / qpstep=4 / cplxblur=20.0 / qblur=0.5 / ip_ratio=1.40 / pb_ratio=1.30 / aq=1:1.00
    Language : English

    Audio #1
    ID : 2
    Format : AC-3
    Format/Info : Audio Coding 3
    Mode extension : CM (complete main)
    Codec ID : A_AC3
    Duration : 2h 2mn
    Bit rate mode : Constant
    Bit rate : 192 Kbps
    Channel(s) : 2 channels
    Channel positions : Front: L R
    Sampling rate : 48.0 KHz
    Bit depth : 16 bits
    Compression mode : Lossy
    Stream size : 168 MiB (2%)
    Title : Профессиональный многоголосый (Россия)
    Language : Russian

    Audio #2
    ID : 3
    Format : AC-3
    Format/Info : Audio Coding 3
    Mode extension : CM (complete main)
    Codec ID : A_AC3
    Duration : 2h 2mn
    Bit rate mode : Constant
    Bit rate : 192 Kbps
    Channel(s) : 2 channels
    Channel positions : Front: L R
    Sampling rate : 48.0 KHz
    Bit depth : 16 bits
    Compression mode : Lossy
    Stream size : 168 MiB (2%)
    Title : авторский (Дольский)
    Language : Russian

    Audio #3
    ID : 4
    Format : AC-3
    Format/Info : Audio Coding 3
    Mode extension : CM (complete main)
    Codec ID : A_AC3
    Duration : 2h 2mn
    Bit rate mode : Constant
    Bit rate : 192 Kbps
    Channel(s) : 2 channels
    Channel positions : Front: L R
    Sampling rate : 48.0 KHz
    Bit depth : 16 bits
    Compression mode : Lossy
    Stream size : 168 MiB (2%)
    Language : English

    Text #1
    ID : 5
    Format : UTF-8
    Codec ID : S_TEXT/UTF8
    Codec ID/Info : UTF-8 Plain Text
    Language : Russian

    Text #2
    ID : 6
    Format : UTF-8
    Codec ID : S_TEXT/UTF8
    Codec ID/Info : UTF-8 Plain Text
    Language : English

    Menu
    00:00:00.000 : :Chapter 01
    00:04:52.166 : :Chapter 02
    00:06:55.289 : :Chapter 03
    00:12:32.168 : :Chapter 04
    00:17:14.742 : :Chapter 05
    00:19:12.401 : :Chapter 06
    00:23:21.858 : :Chapter 07
    00:26:50.483 : :Chapter 08
    00:32:31.157 : :Chapter 09
    00:38:36.522 : :Chapter 10
    00:41:52.426 : :Chapter 11
    00:45:37.693 : :Chapter 12
    00:46:57.689 : :Chapter 13
    00:50:43.665 : :Chapter 14
    00:51:46.853 : :Chapter 15
    00:59:52.171 : :Chapter 16
    01:03:15.833 : :Chapter 17
    01:06:24.480 : :Chapter 18
    01:10:14.043 : :Chapter 19
    01:12:25.674 : :Chapter 20
    01:16:34.172 : :Chapter 21
    01:24:54.339 : :Chapter 22
    01:28:22.922 : :Chapter 23
    01:33:20.136 : :Chapter 24
    01:38:14.179 : :Chapter 25
    01:42:41.697 : :Chapter 26
    01:44:46.363 : :Chapter 27
    01:47:54.676 : :Chapter 28
    01:49:44.703 : :Chapter 29
    01:52:17.230 : :Chapter 30
    01:54:11.553 : :Chapter 31
    01:55:53.655 : :Chapter 32

    Скриншоты для ознакомления


    Релиз подготовил: |
    Размер скачиваемого торрента: 6.80 GB (7298621766 Bytes)

    Бесстрашный / Fearless (1993) BDRip 720p от MediaClub | P, A скачать через торрент бесплатно
    загрузка...
    Рейтинг →
     (голосов: 1, оценка 5/5, голосовать можно 1 раз )

    Другие торренты по теме:

  • Бесстрашный / Dabangg (2010) BDRip-AVC от Тorrent-Хzona
  • Бесстрашный 2 / Dabangg 2 (2012) BDRip | L
  • Бесстрашный / Fearless (2006) HDRip-AVC от WazZzup | D
  • Бесстрашный / Fearless (1993) BDRip 1080p by msltel | P, A
  • Бесстрашный / Fearless (1993) BDRip by msltel | P, A
  • Бесстрашный / Fearless / Huo Yuan Jia (2006) BDRip-AVC от MediaClub | A | Directors Cut


    • Комментарии (0):

      Информация

      Информация

        Посетители, находящиеся в группе Гости, не могут оставлять комментарии в данной новости.

        ↓ Меню



        ↓ Опрос

        А Вы добавили сайт в закладки?
        Да
        Не


        Top 10 за месяц (Фильмы)