.
Авторизация | Регистрация
» » На Землю / Earthbound (2012) WEB-DLRip торрент скачать бесплатно




    На Землю / Earthbound (2012) WEB-DLRip торрент скачать бесплатно

    Опубликовал: Админ | Дата: 27-02-2015, 11:09 | Просмотров: 310



    Детально о кино
    Русское название: На Землю
    Русское название в мировом прокате: Earthbound
    Создали в: 2012
    Категория жанра: Фантастика, фэнтези, мелодрама, комедия
    Главный режиссер: Алан Бреннан / Alan Brennan
    Актеры: Рейф Сполл /Rafe Spall/, Дженн Мюррэй /Jenn Murray/, Стефен Хоган /Stephen Hogan/, Дэвид Моррисси /David Morrissey/, Рори Кинэн /Rory Keenan/, Ифа Даффин /Aoife Duffin/, Кэрри Краули /Carrie Crowley/, Джон Линн /John Lynn/

    Сюжет фильма:
    Перед смертью отец одинадцатилетнего Джо открывает ему тайну, что Джо является последним сыном с далёкой планеты Залаксон, и здесь, на Земле они скрываются от охотников за головами, посланными за ним захватчиками планеты. Миссия Джо: остаться живым, вернуться на Залаксон и стать продолжателем рода залаксонцев...


    Снималось в: Ирландия
    Время просмотра: 01:37:13
    Перевод текста: Профессиональный двухголосый

    Файл
    Кодек для видео: XviD
    Качество фильма: WEB-DLRip (Исх. WEB-DL 720p)
    Информация о видео: 624x352 (1.77:1), 23.976 fps, XviD build 50 ~934 kbps avg, 0.18 bit/pixel
    Информация о звуке: 48 kHz, MPEG Layer 3, 2 ch, ~128.00 kbps avg
    Субтитры: нет

    Семпл

    MediaInfo

    Общее
    Полное имя : S:ФильмыНа Землю. 2012. WEB-DLRip.avi
    Формат : AVI
    Формат/Информация : Audio Video Interleave
    Размер файла : 745 Мбайт
    Продолжительность : 1 ч. 37 м.
    Общий поток : 1071 Кбит/сек
    Программа кодирования : VirtualDubMod 1.5.10.3 | www.virtualdub-fr.org || (build 2550/release)
    Библиотека кодирования : VirtualDubMod build 2550/release

    Видео
    Идентификатор : 0
    Формат : MPEG-4 Visual
    Профиль формата : Advanced Simple@L5
    Параметр BVOP формата : 2
    Параметр QPel формата : Нет
    Параметр GMC формата : Без точки перехода
    Параметр матрицы формата : Выборочная
    Идентификатор кодека : XVID
    Идентификатор кодека/Подсказка : XviD
    Продолжительность : 1 ч. 37 м.
    Битрейт : 934 Кбит/сек
    Ширина : 624 пикс.
    Высота : 352 пикс.
    Соотношение сторон : 16:9
    Частота кадров : 23,976 кадр/сек
    Цветовое пространство : YUV
    Подвыборка цветности : 4:2:0
    Битовая глубина : 8 бит
    Тип развёртки : Прогрессивная
    Метод сжатия : С потерями
    Бит/(Пиксели*Кадры) : 0.177
    Размер потока : 649 Мбайт (87%)
    Библиотека кодирования : XviD 1.2.1 (UTC 2008-12-04)

    Аудио
    Идентификатор : 1
    Формат : MPEG Audio
    Версия формата : Version 1
    Профиль формата : Layer 3
    Идентификатор кодека : 55
    Идентификатор кодека/Подсказка : MP3
    Продолжительность : 1 ч. 37 м.
    Вид битрейта : Постоянный
    Битрейт : 128 Кбит/сек
    Каналы : 2 канала
    Частота : 48,0 КГц
    Метод сжатия : С потерями
    Размер потока : 89,0 Мбайт (12%)
    Выравнивание : Соединение по промежуткам
    Продолжительность промежутка : 42 мс. (1,00 видеокадр)
    Время предзагрузки промежутка : 504 ms
    Библиотека кодирования : LAME3.99r
    Залил: Losk
    Размер скачиваемого торрента: 744.89 MB (781078528 Bytes)


    На Землю / Earthbound (2012) WEB-DLRip торрент скачать бесплатно
    загрузка...
    Рейтинг →
     (голосов: 1, оценка 3/5, голосовать можно 1 раз )

    Другие торренты по теме:

  • Мстители - Могучие Герои Земли / The Avengers - Earths Mightiest Heroes (2012) WEB-DLRip торрент скачать бесплатно
  • Рыжков Александр - Сборник Мёртвая Земля (2011) MP3 торрент скачать бесплатно
  • Когда Санта упал на Землю / Als der Weihnachtsmann vom Himmel fiel (2011) HDRip | P торрент скачать бесплатно
  • Масливец В.А., Здесенко H.H. - Интенсивное использование земли в рисовых севооборотах (2008) PDF торрент скачать бесплатно
  • Экхарт Толле - Новая земля (2007) DOC торрент скачать бесплатно
  • Дрожь земли / Tremors (1990) BDRip-AVC торрент скачать бесплатно
  • Последняя любовь на Земле / Perfect Sense(2011) BDRip-AVC | iPad торрент скачать бесплатно
  • К 70-летию победы под Сталинградом. За Волгой для нас земли нет! (2013) SATRip от VEGA-Tracker торрент скачать бесплатно


    • Комментарии (0):

      Информация

      Информация

        Посетители, находящиеся в группе Гости, не могут оставлять комментарии в данной новости.

        ↓ Меню



        ↓ Опрос

        А Вы добавили сайт в закладки?
        Да
        Не


        Top 10 за неделю (Фильмы)