.
Авторизация | Регистрация
» » Уолл-стрит / Wall Street (1987) BDRemux 1080p от ExKinoRay | D, P, A торрент скачать бесплатно




    Уолл-стрит / Wall Street (1987) BDRemux 1080p от ExKinoRay | D, P, A торрент скачать бесплатно

    Опубликовал: Админ | Дата: 27-02-2015, 11:09 | Просмотров: 237




    Детально о кино

    Русское название: Уолл-стрит
    Русское название в мировом прокате: Wall Street
    Создали в: 1987
    Категория жанра: Драма, криминал
    Снималось в: США, 20th Century Fox Film Corporation, Amercent Films, American Entertainment Partners L.P.
    Главный режиссер: Оливер Стоун
    Актеры: Майкл Дуглас, Чарли Шин, Дэрил Ханна, Мартин Шин, Хэл Холбрук, Теренс Стэмп, Сол Рубинек, Уильям Дж. Найт, Тамара Тюни, Франклин Ковер, Чак Пфайфер, Джон К. МакГинли, Джеймс Карен, Лесли Лайлс, Фэйт Гир, Фрэнк Адонис, Джон Каподиче, Сузен Муракоши, Дэни Клейн, Франсуа Джиродэй, Джош Мостел, Энн Тэлман, Лиза Зебро, Мартин Шерман, Моника ван Вурен, Дерек Кейр, Андреа Томпсон, Лорен Том, Джордж Блюменталь, Джордж Влахос, Лилиан Монтевечи, Майкл О’Донохью, Пири МакДональд, Томас Андерсон, Шон Янг, Сесилия Пек, Пол Гилфойл, Энни МакЭнро, Джек Пруэтт, Рональд Ямамото, Джеймс Спэйдер, Грант Шод, Кэрол Шнайдер



    Сюжет фильма: Бад Фокс, молодой и предельно амбициозный брокер, живет в сердце мира, где у всего есть своя цена, все можно купить и продать. Он твердо намерен достичь вершин, стать лучшим. Стремясь получить поддержку, он добивается знакомства со старым хищником Гордоном Гекко, и тот открывает ему тайны мастерства. Быстрые деньги, роскошные женщины, все удовольствия мира в руках у Бада, а бурлящие вокруг финансовые потоки несут еще больше денег, больше возможностей, больше искушений. Нужно только настичь эту добычу...






    Файл

    Качество фильма: Blu-Ray Remux (1080p)
    Информация о видео: MPEG-4 AVC, 31991 Кбит/с, 1920x1080, 1920x1080, 23.976 кадр/с
    Информация о звуке: Русский (AC3, 2 ch, 192 Кбит/с), (DTS, 6 ch, 768 Кбит/с), (DTS, 6 ch, 1509 Кбит/с), (DTS-HD MA, 6 ch, 3933 Кбит/сек), украинский (AC3, 2 ch, 192 Кбит/с), английский (DTS-HD MA, 6 ch, 3593 Кбит/сек)
    Размер скачиваемого торрента: 37.72 ГБ
    Время просмотра: 02:05:45
    Перевод текста: Дублированный, профессиональный многоголосый, авторский одноголосый
    Субтитры: Русские, английские


    Аудио #1: Русский (AC3, 2 ch, 192 Кбит/с) - Дублированный (Ленфильм)
    Аудио #2: Русский (AC3, 2 ch, 192 Кбит/с) - Профессиональный многоголосый (НТВ )
    Аудио #3: Русский (AC3, 2 ch, 192 Кбит/с) - Профессиональный многоголосый
    Аудио #4: Украинский (AC3, 2 ch, 192 Кбит/с) - Профессиональный многоголосый
    Аудио #5: Русский (DTS, 6 ch, 768 Кбит/с) - Профессиональный многоголосый (BD EUR)
    Аудио #6: Русский (AC3, 2 ch, 192 Кбит/с) - Авторский одноголосый (Ю.Живов)
    Аудио #7: Русский (AC3, 2 ch, 192 Кбит/с) - Авторский одноголосый (Володарский)
    Аудио #8: Русский (DTS, 6 ch, 1509 Кбит/с) - Авторский одноголосый (Чадов)
    Аудио #9: Русский (DTS-HD МА, 6 ch, 3933 Кбит/с) - Авторский одноголосый (Немахов)
    Аудио #10: Английский (DTS-HD МА, 6 ch, 3593 Кбит/с)
    -----------------------------------------------------------------------------------------------------------------
    Огромное спасибо за перевод Юрия Немахова пользователям форума е180:
    jorn2, Эдуард, foxlight, uchitel538, zeleniy, Guyver, Loki1982, Kastro, Nadoelo, пуля, Valen, Мr. Di, safreks, carnivale, luka69, Larry.

    Сохранены оригинальные чаптеры как на Blu-Ray



    Инфо-файл

    Общее
    Уникальный идентификатор : 181819222550615100534257621606727901689 (0x88C91BC7CE450FCD914E17B05B9361F9)
    Полное имя : C:ЗагрузкиWall.$treet.1987.BDRemux.(1080p).ExKinoRay.mkv
    Формат : Matroska
    Версия формата : Version 2
    Размер файла : 37,7 Гбайт
    Продолжительность : 2 ч. 5 м.
    Режим общего битрейта : Переменный
    Общий поток : 43,0 Мбит/сек
    Название фильма : Уолл-стрит.1987.Сборка: ollan
    Дата кодирования : UTC 2013-12-24 20:39:57
    Программа кодирования : mkvmerge v5.6.0 (;Kenya Kane;) built on May 27 2012 16:44:04
    Библиотека кодирования : libebml v1.2.3 libmatroska v1.3.0

    Видео
    Идентификатор : 1
    Формат : AVC
    Формат/Информация : Advanced Video Codec
    Профиль формата : High@L4.1
    Параметр CABAC формата : Да
    Параметр ReFrames формата : 2 кадра
    Параметр GOP формата : M=3, N=24
    Идентификатор кодека : V_MPEG4/ISO/AVC
    Продолжительность : 2 ч. 5 м.
    Вид битрейта : Переменный
    Максимальный битрейт : 40,0 Мбит/сек
    Ширина : 1920 пикселей
    Высота : 1080 пикселей
    Соотношение сторон : 16:9
    Режим частоты кадров : Постоянный
    Частота кадров : 23,976 кадра/сек
    Цветовое пространство : YUV
    Субдискретизация насыщенности : 4:2:0
    Битовая глубина : 8 бит
    Тип развёртки : Прогрессивная
    Default : Да
    Forced : Нет

    Аудио #1
    Идентификатор : 2
    Формат : AC-3
    Формат/Информация : Audio Coding 3
    Расширение режима : CM (complete main)
    Параметр Endianness формата : Big
    Идентификатор кодека : A_AC3
    Продолжительность : 2 ч. 5 м.
    Вид битрейта : Постоянный
    Битрейт : 192 Кбит/сек
    Каналы : 2 канала
    Расположение каналов : Front: L R
    Частота : 48,0 КГц
    Битовая глубина : 16 бит
    Метод сжатия : С потерями
    Размер потока : 173 Мбайт (0%)
    Заголовок : Дублированный (Ленфильм)
    Язык : Russian
    Default : Да
    Forced : Да

    Аудио #2
    Идентификатор : 3
    Формат : AC-3
    Формат/Информация : Audio Coding 3
    Расширение режима : CM (complete main)
    Параметр Endianness формата : Big
    Идентификатор кодека : A_AC3
    Продолжительность : 2 ч. 5 м.
    Вид битрейта : Постоянный
    Битрейт : 192 Кбит/сек
    Каналы : 2 канала
    Расположение каналов : Front: L R
    Частота : 48,0 КГц
    Битовая глубина : 16 бит
    Метод сжатия : С потерями
    Размер потока : 173 Мбайт (0%)
    Заголовок : Профессиональный многоголосый (НТВ )
    Язык : Russian
    Default : Нет
    Forced : Нет

    Аудио #3
    Идентификатор : 4
    Формат : AC-3
    Формат/Информация : Audio Coding 3
    Профиль формата : Dolby Digital
    Расширение режима : CM (complete main)
    Параметр Endianness формата : Big
    Идентификатор кодека : A_AC3
    Продолжительность : 2 ч. 5 м.
    Вид битрейта : Постоянный
    Битрейт : 192 Кбит/сек
    Каналы : 2 канала
    Расположение каналов : Front: L R
    Частота : 48,0 КГц
    Битовая глубина : 16 бит
    Метод сжатия : С потерями
    Размер потока : 173 Мбайт (0%)
    Заголовок : Профессиональный многоголосый
    Язык : Russian
    Default : Нет
    Forced : Нет

    Аудио #4
    Идентификатор : 5
    Формат : AC-3
    Формат/Информация : Audio Coding 3
    Профиль формата : Dolby Digital
    Расширение режима : CM (complete main)
    Параметр Endianness формата : Big
    Идентификатор кодека : A_AC3
    Продолжительность : 2 ч. 5 м.
    Вид битрейта : Постоянный
    Битрейт : 192 Кбит/сек
    Каналы : 2 канала
    Расположение каналов : Front: L R
    Частота : 48,0 КГц
    Битовая глубина : 16 бит
    Метод сжатия : С потерями
    Размер потока : 173 Мбайт (0%)
    Заголовок : Профессиональный многоголосый
    Язык : Ukrainian
    Default : Нет
    Forced : Нет

    Аудио #5
    Идентификатор : 6
    Формат : DTS
    Формат/Информация : Digital Theater Systems
    Режим : 16
    Параметр Endianness формата : Big
    Идентификатор кодека : A_DTS
    Продолжительность : 2 ч. 5 м.
    Вид битрейта : Постоянный
    Битрейт : 768 Кбит/сек
    Каналы : 6 каналов
    Расположение каналов : Front: L C R, Side: L R, LFE
    Частота : 48,0 КГц
    Битовая глубина : 24 бит
    Метод сжатия : С потерями
    Размер потока : 691 Мбайт (2%)
    Заголовок : Профессиональный многоголосый (BD EUR)
    Язык : Russian
    Default : Нет
    Forced : Нет

    Аудио #6
    Идентификатор : 7
    Формат : AC-3
    Формат/Информация : Audio Coding 3
    Профиль формата : Dolby Digital
    Расширение режима : CM (complete main)
    Параметр Endianness формата : Big
    Идентификатор кодека : A_AC3
    Продолжительность : 2 ч. 5 м.
    Вид битрейта : Постоянный
    Битрейт : 192 Кбит/сек
    Каналы : 2 канала
    Расположение каналов : Front: L R
    Частота : 48,0 КГц
    Битовая глубина : 16 бит
    Метод сжатия : С потерями
    Размер потока : 173 Мбайт (0%)
    Заголовок : Авторский одноголосый (Живов)
    Язык : Russian
    Default : Нет
    Forced : Нет

    Аудио #7
    Идентификатор : 8
    Формат : AC-3
    Формат/Информация : Audio Coding 3
    Профиль формата : Dolby Digital
    Расширение режима : CM (complete main)
    Параметр Endianness формата : Big
    Идентификатор кодека : A_AC3
    Продолжительность : 2 ч. 5 м.
    Вид битрейта : Постоянный
    Битрейт : 192 Кбит/сек
    Каналы : 2 канала
    Расположение каналов : Front: L R
    Частота : 48,0 КГц
    Битовая глубина : 16 бит
    Метод сжатия : С потерями
    Размер потока : 173 Мбайт (0%)
    Заголовок : Авторский одноголосый (Володарский)
    Язык : Russian
    Default : Нет
    Forced : Нет

    Аудио #8
    Идентификатор : 9
    Формат : DTS
    Формат/Информация : Digital Theater Systems
    Режим : 16
    Параметр Endianness формата : Big
    Идентификатор кодека : A_DTS
    Продолжительность : 2 ч. 5 м.
    Вид битрейта : Постоянный
    Битрейт : 1509 Кбит/сек
    Каналы : 6 каналов
    Расположение каналов : Front: L C R, Side: L R, LFE
    Частота : 48,0 КГц
    Битовая глубина : 24 бит
    Метод сжатия : С потерями
    Размер потока : 1,33 Гбайт (4%)
    Заголовок : Авторский одноголосый (Чадов)
    Язык : Russian
    Default : Нет
    Forced : Нет

    Аудио #9
    Идентификатор : 10
    Формат : DTS
    Формат/Информация : Digital Theater Systems
    Профиль формата : MA / Core
    Режим : 16
    Параметр Endianness формата : Big
    Идентификатор кодека : A_DTS
    Продолжительность : 2 ч. 5 м.
    Вид битрейта : Переменный
    Битрейт : Неизвестно / 1509 Кбит/сек
    Каналы : 6 каналов
    Расположение каналов : Front: L C R, Side: L R, LFE
    Частота : 48,0 КГц
    Битовая глубина : 24 бит
    Метод сжатия : Без потерь / Lossy
    Заголовок : Авторский одноголосый (Немахов)
    Язык : Russian
    Default : Нет
    Forced : Нет

    Аудио #10
    Идентификатор : 11
    Формат : DTS
    Формат/Информация : Digital Theater Systems
    Профиль формата : MA / Core
    Режим : 16
    Параметр Endianness формата : Big
    Идентификатор кодека : A_DTS
    Продолжительность : 2 ч. 5 м.
    Вид битрейта : Переменный
    Битрейт : Неизвестно / 1509 Кбит/сек
    Каналы : 6 каналов
    Расположение каналов : Front: L C R, Side: L R, LFE
    Частота : 48,0 КГц
    Битовая глубина : 24 бит
    Метод сжатия : Без потерь / Lossy
    Язык : English
    Default : Нет
    Forced : Нет

    Текст #1
    Идентификатор : 12
    Формат : UTF-8
    Идентификатор кодека : S_TEXT/UTF8
    Идентификатор кодека/Информация : UTF-8 Plain Text
    Язык : Russian
    Default : Нет
    Forced : Нет

    Текст #2
    Идентификатор : 13
    Формат : UTF-8
    Идентификатор кодека : S_TEXT/UTF8
    Идентификатор кодека/Информация : UTF-8 Plain Text
    Язык : English
    Default : Нет
    Forced : Нет

    Меню
    00:00:00.000 : :Chapter 01
    00:04:26.015 : :Chapter 03
    00:09:04.544 : :Chapter 06
    00:13:22.218 : :Chapter 09
    00:23:20.899 : :Chapter 13
    00:26:19.619 : :Chapter 16
    00:28:40.051 : :Chapter 19
    00:33:27.130 : :Chapter 22
    00:37:06.307 : :Chapter 25
    00:40:42.106 : :Chapter 28
    00:44:05.726 : :Chapter 31
    00:52:41.867 : :Chapter 35
    00:56:45.235 : :Chapter 38
    00:59:49.002 : :Chapter 41
    01:05:00.563 : :Chapter 44
    01:07:14.488 : :Chapter 47
    01:13:18.435 : :Chapter 51
    01:19:43.987 : :Chapter 55
    01:22:11.760 : :Chapter 58
    01:30:31.175 : :Chapter 62
    01:32:16.989 : :Chapter 65
    01:34:19.737 : :Chapter 68
    01:38:26.525 : :Chapter 71
    01:42:47.119 : :Chapter 74
    01:45:26.194 : :Chapter 77
    01:47:00.163 : :Chapter 80
    01:53:07.238 : :Chapter 84
    01:59:06.889 : :Chapter 88
    02:05:43.452 : :Chapter 91


    Скриншоты для ознакомления






    Релиз подготовил: Сборка:
    Залил: ollan
    Размер скачиваемого торрента: 37.72 GB (40503976717 Bytes)

    Уолл-стрит / Wall Street (1987) BDRemux 1080p от ExKinoRay | D, P, A торрент скачать бесплатно
    загрузка...
    Рейтинг →
     (голосов: 1, оценка 3/5, голосовать можно 1 раз )

    Другие торренты по теме:

  • Волк с Уолл-стрит / The Wolf of Wall Street (2013) HD 1080p | L1 | Трейлер торрент скачать бесплатно
  • Уолл Стрит: Деньги не спят / Wall Street: Money Never Sleeps (2010) HDRip от Scarabey | D торрент скачать бесплатно
  • Уолл-стрит / Wall Street (1987) HDRip от Scarabey | D | REMASTERED торрент скачать бесплатно
  • Волк с Уолл-стрит торрент скачать бесплатно
  • Эпоха алчности / Нападение на Уолл-стрит / Assault on Wall Street (2013) BDRip 720p от leonardo 59 Scarabey | L1 торрент скачать бесплатно
  • Нападение на Уолл-стрит / Эпоха алчности / Assault on Wall Street (2013) HDRip торрент скачать бесплатно
  • Нападение на Уолл-стрит / Эпоха алчности / Assault on Wall Street (2013) HDRip от Smart-Tracker | КПК скачать через торрент бесплатно
  • Нападение на Уолл-стрит / Эпоха алчности / Bailout: The Age of Greed / Assault on Wall Street (2013) Blu-Ray 1080p | P торрент скачать бесплатно


    • Комментарии (0):

      Информация

      Информация

        Посетители, находящиеся в группе Гости, не могут оставлять комментарии в данной новости.

        ↓ Меню



        ↓ Опрос

        А Вы добавили сайт в закладки?
        Да
        Не


        Top 10 за неделю (Фильмы)