.
Авторизация | Регистрация
Хочешь лучшие торренты? Добавь свой email!
Добавить
» » Джодха и Акбар / Jodhaa Akbar (2008) BDRip-AVC от RG Jolly Roger торрент скачать бесплатно




    Джодха и Акбар / Jodhaa Akbar (2008) BDRip-AVC от RG Jolly Roger торрент скачать бесплатно

    Опубликовал: Админ | Дата: 27-02-2015, 11:09 | Просмотров: 370

    Русское название: Джодха и Акбар
    Русское название в мировом прокате: Jodhaa Akbar



    Создали в: 2008 г.
    Категория жанра: мюзикл, боевик, драма, мелодрама, приключения, биография, история

    Главный режиссер: Ашутош Говарикер / Ashutosh Gowariker

    Актеры: Ритик Рошан, Айшвария Рай, Сону Суд, Комал, Сухасини Малай, Ила Арун, Раза Мурад, Кулбхушан Харбанда, Сурендра Пэл, Раджеш Вивек

    Сюжет: Пронзительная история любви одного из самых знаменитых императоров Индии и прекрасной принцессы — эпическая сага времен XVI века. Джалалуддин Мохаммад Акбар (Акбар на арабском означает великий ), оставивший след в истории как великий могол Акбар — мусульманин. Принцесса Раджпута, Джодха — индуистка. В то время, когда мусульмане и индуисты испытывали глубокую неприязнь друг к другу, их союз был призван не только соединить два сердца, но и две религии.

    Но отдаст ли руку своей дочери раджа Бхармал Амер? Да, ведь предложение о браке исходило от него и ради мира в империи завоеватель Акбар принял его. Предполагал ли он, что непокорная и строптивая Джодха станет женщиной всей его жизни, и политический союз перерастет в любовь на всю жизнь…



    Создали в: Индия
    Время просмотра: 03:33:59
    Перевод текста: Профессиональный (многоголосый, закадровый)

    Файл
    Качество фильма видео: BDRip-AVC
    Контейнер: MKV
    Информация о видео кодек: H.264
    Информация о звуке кодек: AC3
    Информация о видео: MPEG4 Video (H264) 1008x432 24fps 1299 Kbps
    Информация о звуке: Dolby AC3 48000Hz 6ch 448 Kbps / Русский
    Информация о звуке: Dolby AC3 48000Hz 2ch 192 Kbps / Хинди
    Информация о звуке: русские (2 вида), отключаемые
    Media Info

    General
    Unique ID : 172205192230392623660679618625424259432 (0x818D837D39DC0D70A1E7A1474C56F968)
    Complete name : F:Jodhaa.Akbar.2008.H.264.BDRip-AVC.JRG.mkv
    Format : Matroska
    Format version : Version 4 / Version 2
    File size : 2.90 GiB
    Duration : 3h 33mn
    Overall bit rate : 1 941 Kbps
    Encoded date : UTC 2013-12-14 08:41:37
    Writing application : mkvmerge v6.3.0 (;You can;t stop me!;) built on Jun 28 2013 20:09:41
    Writing library : libebml v1.3.0 libmatroska v1.4.0

    Video
    ID : 1
    Format : AVC
    Format/Info : Advanced Video Codec
    Format profile : High@L4.1
    Format settings, CABAC : Yes
    Format settings, ReFrames : 7 frames
    Codec ID : V_MPEG4/ISO/AVC
    Duration : 3h 33mn
    Bit rate : 1 299 Kbps
    Width : 1 008 pixels
    Height : 432 pixels
    Display aspect ratio : 2.35:1
    Frame rate mode : Constant
    Frame rate : 24.000 fps
    Color space : YUV
    Chroma subsampling : 4:2:0
    Bit depth : 8 bits
    Scan type : Progressive
    Bits/(Pixel*Frame) : 0.124
    Stream size : 1.89 GiB (65%)
    Writing library : x264 core 130 r2273 b3065e6
    Encoding settings : cabac=1 / ref=7 / deblock=1:-1:-1 / analyse=0x3:0x133 / me=umh / subme=10 / psy=1 / psy_rd=1.00:0.15 / mixed_ref=0 / me_range=24 / chroma_me=1 / trellis=2 / 8x8dct=1 / cqm=0 / deadzone=21,11 / fast_pskip=0 / chroma_qp_offset=-3 / threads=3 / lookahead_threads=1 / sliced_threads=0 / nr=0 / decimate=1 / interlaced=0 / bluray_compat=0 / constrained_intra=0 / bframes=6 / b_pyramid=2 / b_adapt=2 / b_bias=0 / direct=3 / weightb=1 / open_gop=0 / weightp=2 / keyint=250 / keyint_min=23 / scenecut=40 / intra_refresh=0 / rc_lookahead=50 / rc=2pass / mbtree=1 / bitrate=1299 / ratetol=1.0 / qcomp=0.60 / qpmin=0 / qpmax=69 / qpstep=4 / cplxblur=20.0 / qblur=0.5 / ip_ratio=1.40 / aq=1:1.00
    Default : Yes
    Forced : No

    Audio #1
    ID : 2
    Format : AC-3
    Format/Info : Audio Coding 3
    Mode extension : CM (complete main)
    Format settings, Endianness : Big
    Codec ID : A_AC3
    Duration : 3h 33mn
    Bit rate mode : Constant
    Bit rate : 448 Kbps
    Channel(s) : 6 channels
    Channel positions : Front: L C R, Side: L R, LFE
    Sampling rate : 48.0 KHz
    Bit depth : 16 bits
    Compression mode : Lossy
    Stream size : 686 MiB (23%)
    Language : Russian
    Default : Yes
    Forced : No

    Audio #2
    ID : 3
    Format : AC-3
    Format/Info : Audio Coding 3
    Mode extension : CM (complete main)
    Format settings, Endianness : Big
    Codec ID : A_AC3
    Duration : 3h 33mn
    Bit rate mode : Constant
    Bit rate : 192 Kbps
    Channel(s) : 2 channels
    Channel positions : Front: L R
    Sampling rate : 48.0 KHz
    Bit depth : 16 bits
    Compression mode : Lossy
    Stream size : 294 MiB (10%)
    Language : Hindi
    Default : No
    Forced : No

    Text #1
    ID : 4
    Format : UTF-8
    Codec ID : S_TEXT/UTF8
    Codec ID/Info : UTF-8 Plain Text
    Title : BwTorrents
    Language : Russian
    Default : No
    Forced : No

    Text #2
    ID : 5
    Format : UTF-8
    Codec ID : S_TEXT/UTF8
    Codec ID/Info : UTF-8 Plain Text
    Title : Индомания
    Language : Russian
    Default : No
    Forced : No

    Скриншоты для ознакомления


    Релиз подготовил:
    Размер скачиваемого торрента: 2.90 GB (3115374055 Bytes)

    Джодха и Акбар / Jodhaa Akbar (2008) BDRip-AVC от RG Jolly Roger торрент скачать бесплатно
    загрузка...
    Рейтинг →
     (голосов: 1, оценка 5/5, голосовать можно 1 раз )

    Другие торренты по теме:

  • Джодха и Акбар / Jodhaa Akbar (2008) BDRip-AVC от MediaClub


    • Комментарии (0):

      Информация

      Информация

        Посетители, находящиеся в группе Гости, не могут оставлять комментарии в данной новости.

        ↓ Меню



        ↓ Опрос

        А Вы добавили сайт в закладки?
        Да
        Не


        Top 10 за месяц (Фильмы)