.
Авторизация | Регистрация
» » Риддик / Riddick (2013) BDRip-AVC от BuR | iTunes торрент скачать бесплатно




    Риддик / Riddick (2013) BDRip-AVC от BuR | iTunes торрент скачать бесплатно

    Опубликовал: Админ | Дата: 27-02-2015, 11:09 | Просмотров: 313



    Детально о кино
    Русское название: Риддик
    Русское название в мировом прокате: Riddick
    Создали в: 2013
    Категория жанра: фантастика, боевик, триллер
    Главный режиссер: Дэвид Туи
    Актеры: Вин Дизель, Хорди Молья, Мэтью Нэйбл, Кэти Сакхофф, Дэйв Батиста, Букем Вудбайн, Рауль Трухильо, Конрад Пла, Дэнни Бланко, Карл Урбан

    Сюжет фильма: Преданный своими и брошенный умирать на пустынной планете, Риддик сражается с хищниками за жизнь и становится сильнее и опаснее себя прежнего. Открывшие на него охоту галактические наемники оказываются пешками в грандиозном плане отмщения. С врагами, возникающими на его пути тогда, когда это нужно самому Риддику, он начинает поход во имя мести, чтобы в конечном счете вернуться на родную Фурию и спасти ее от уничтожения.



    Снималось в: США, Великобритания, Universal Pictures
    Время просмотра: 01:58:40
    Перевод текста: Профессиональный (полное дублирование)

    Файл
    Качество фильма: BDRip-AVC
    Тип видео: MKV
    Информация о видео: MPEG4/AVC, 1040х432 (2,40:1), 23,976 кадра/сек, 4339 Кбит/сек, 0.403 Бит/(Пиксели*Кадры)
    Информация о звуке 1: AC-3, 6 ch, 384 Кбит/сек, Rus - iTunes Russia
    Информация о звуке 2: AC-3, 6 ch, 640 Кбит/сек, Eng - Оригинал
    Субтитры: Русские, Английские (Full SDH-Colored)
    Навигация по главам: Есть

    MediaInfo:
    Общее
    Уникальный идентификатор : 221282372499566311067881404842738303451 (0xA6796F4ADF1281C2B3E0ABC24C45C1DB)
    Полное имя : Riddick. (2013) BDRip-AVC.mkv
    Формат : Matroska
    Версия формата : Version 2
    Размер файла : 4,44 Гбайт
    Продолжительность : 1 ч. 58 м.
    Общий поток : 5360 Кбит/сек
    Дата кодирования : UTC 2013-12-26 19:27:16
    Программа кодирования : mkvmerge v5.8.0 (;No Sleep / Pillow;) built on Sep 2 2012 15:37:04
    Библиотека кодирования : libebml v1.2.3 libmatroska v1.3.0

    Видео
    Идентификатор : 1
    Формат : AVC
    Формат/Информация : Advanced Video Codec
    Профиль формата : High@L4.1
    Параметр CABAC формата : Да
    Параметр ReFrames формата : 11 кадров
    Идентификатор кодека : V_MPEG4/ISO/AVC
    Продолжительность : 1 ч. 58 м.
    Битрейт : 4339 Кбит/сек
    Ширина : 1040 пикселей
    Высота : 432 пикселя
    Соотношение сторон : 2,40:1
    Режим частоты кадров : Постоянный
    Частота кадров : 23,976 кадра/сек
    Цветовое пространство : YUV
    Субдискретизация насыщенности : 4:2:0
    Битовая глубина : 8 бит
    Тип развёртки : Прогрессивная
    Бит/(Пиксели*Кадры) : 0.403
    Размер потока : 3,51 Гбайт (79%)
    Библиотека кодирования : x264 core 140 r2377 1ca7bb9
    Настройки программы : cabac=1 / ref=11 / deblock=1:-3:-3 / analyse=0x3:0x113 / me=umh / subme=10 / psy=1 / psy_rd=0.95:0.00 / mixed_ref=1 / me_range=32 / chroma_me=1 / trellis=2 / 8x8dct=1 / cqm=0 / deadzone=21,11 / fast_pskip=0 / chroma_qp_offset=-2 / threads=6 / lookahead_threads=1 / sliced_threads=0 / nr=0 / decimate=0 / interlaced=0 / bluray_compat=0 / constrained_intra=0 / bframes=9 / b_pyramid=2 / b_adapt=2 / b_bias=0 / direct=3 / weightb=1 / open_gop=0 / weightp=2 / keyint=240 / keyint_min=23 / scenecut=40 / intra_refresh=0 / rc=2pass / mbtree=0 / bitrate=4339 / ratetol=2.0 / qcomp=0.60 / qpmin=0 / qpmax=69 / qpstep=4 / cplxblur=20.0 / qblur=0.5 / ip_ratio=1.40 / pb_ratio=1.30 / aq=1:0.80
    Язык : English
    Default : Да
    Forced : Нет

    Аудио #1
    Идентификатор : 2
    Формат : AC-3
    Формат/Информация : Audio Coding 3
    Расширение режима : CM (complete main)
    Параметр Endianness формата : Big
    Идентификатор кодека : A_AC3
    Продолжительность : 1 ч. 58 м.
    Вид битрейта : Постоянный
    Битрейт : 384 Кбит/сек
    Каналы : 6 каналов
    Расположение каналов : Front: L C R, Side: L R, LFE
    Частота : 48,0 КГц
    Битовая глубина : 16 бит
    Метод сжатия : С потерями
    Размер потока : 326 Мбайт (7%)
    Заголовок : Dub | DD 5.1 @ 384 kbps - iTunes
    Язык : Russian
    Default : Да
    Forced : Да

    Аудио #2
    Идентификатор : 3
    Формат : AC-3
    Формат/Информация : Audio Coding 3
    Расширение режима : CM (complete main)
    Параметр Endianness формата : Big
    Идентификатор кодека : A_AC3
    Продолжительность : 1 ч. 58 м.
    Вид битрейта : Постоянный
    Битрейт : 640 Кбит/сек
    Каналы : 6 каналов
    Расположение каналов : Front: L C R, Side: L R, LFE
    Частота : 48,0 КГц
    Битовая глубина : 16 бит
    Метод сжатия : С потерями
    Размер потока : 543 Мбайт (12%)
    Заголовок : Dub | DD 5.1 @ 640 kbps
    Язык : English
    Default : Нет
    Forced : Нет

    Текст #1
    Идентификатор : 4
    Формат : UTF-8
    Идентификатор кодека : S_TEXT/UTF8
    Идентификатор кодека/Информация : UTF-8 Plain Text
    Заголовок : RUS
    Язык : Russian
    Default : Нет
    Forced : Нет

    Текст #2
    Идентификатор : 5
    Формат : UTF-8
    Идентификатор кодека : S_TEXT/UTF8
    Идентификатор кодека/Информация : UTF-8 Plain Text
    Заголовок : ENG | SDH-Colored
    Язык : English
    Default : Нет
    Forced : Нет

    Текст #3
    Идентификатор : 6
    Формат : UTF-8
    Идентификатор кодека : S_TEXT/UTF8
    Идентификатор кодека/Информация : UTF-8 Plain Text
    Заголовок : ENG | Fuul
    Язык : English
    Default : Нет
    Forced : Нет

    Меню
    00:00:00.000 : en:(01)00:00:00:000
    00:08:22.668 : en:(02)00:08:22:668
    00:19:44.599 : en:(03)00:19:44:599
    00:30:00.798 : en:(04)00:30:00:798
    00:42:49.315 : en:(05)00:42:49:315
    00:51:07.814 : en:(06)00:51:07:814
    01:03:07.950 : en:(07)01:03:07:950
    01:11:46.844 : en:(08)01:11:46:844
    01:21:01.856 : en:(09)01:21:01:856
    01:33:41.323 : en:(10)01:33:41:323
    01:44:40.774 : en:(11)01:44:40:774
    01:54:50.925 : en:(12)01:54:50:925
    01:58:39.821 : en:(13)01:58:39:821

    Скриншоты для ознакомления:


    Релиз подготовил:
    Размер скачиваемого торрента: 4.44 GB (4770457638 Bytes)

    Риддик / Riddick (2013) BDRip-AVC от BuR | iTunes торрент скачать бесплатно
    загрузка...
    Рейтинг →
     (голосов: 1, оценка 5/5, голосовать можно 1 раз )

    Другие торренты по теме:

  • Хроники Риддика / The Chronicles of Riddick (2004) HDRip от Scarabey | D | Театральная версия торрент скачать бесплатно
  • Хроники Риддика: Тёмная ярость / Chronicles of Riddick: Dark Fury (2004) DVD5 от Youtracker | P | Лицензия торрент скачать бесплатно
  • OST - Хроники Риддика / The Chronicles of Riddick (2004) MP3 торрент скачать бесплатно
  • Риддик / Riddick (2013) HD-720p | D | Трейлер торрент скачать бесплатно
  • Риддик / Riddick (2013) CAMRip торрент скачать бесплатно
  • Риддик / Riddick (2013) CAMRip *PROPER* торрент скачать бесплатно
  • Хроники Риддика / The Chronicles of Riddick (2004) BDRip 720p | Театральная версия торрент скачать бесплатно
  • Риддик / Riddic (2013) CAMRip *PROPER* скачать через торрент бесплатно


    • Комментарии (0):

      Информация

      Информация

        Посетители, находящиеся в группе Гости, не могут оставлять комментарии в данной новости.

        ↓ Меню



        ↓ Опрос

        А Вы добавили сайт в закладки?
        Да
        Не


        Top 10 за неделю (Фильмы)