.
Авторизация | Регистрация




На мосту (2008) DVDRip - от NovaLan торрент скачать бесплатно

Опубликовал: Админ | Дата: 27-02-2015, 11:09 | Просмотров: 398





Снималось в: Россия
Создали в: Фора-фильм М
Категория жанра: Драма
Создали в: 2008

Время просмотра: 4 х ~ 00:50:00


Язык: Русский

Главный режиссер: Андрей Разумовский, Андрей Разумовский мл


Актеры: Александр Пашутин, Борис Галкин, Ирина Лачина, Роман Индык, Андрей Каверин, Павел Сиротин, Александр Власов, Илья Крутояров, Станислав Эрдлей, Мария Бакушинская


Сюжет: 13-летний детдомовец, оказавшись соучастником убийства, совершает побег из приюта. Приехав в Москву, он попадает в центр для трудных подростков, где переосмысливает свою прошлую жизнь и находит новых друзей. Директор Детдома и психолог помогают мальчику избежать незаслуженого обвинения и вырваться из под влияния воровского авторитета.



Исходник: DVD5 R5

Тип релиза: DVDRip

Контейнер: AVI


Информация о видео: 704x528 (1.33:1), 23.976 fps, XviD ~1143 kbps avg, 0.13 bit/pixel
Информация о звуке: 48 kHz, AC3 6.0 ~256.00 kbps avg



MediaInfo

Общее
Полное имя : D:1АААНа мосту1 серия.avi
Формат : AVI
Формат/Информация : Audio Video Interleave
Размер файла : 505 Мбайт
Продолжительность : 50 м.
Общий поток : 1409 Кбит/сек
Программа кодирования : VirtualDubMod 1.5.10.3 | www.virtualdub-fr.org || (build 2550/release)
Библиотека кодирования : VirtualDubMod build 2550/release

Видео
Идентификатор : 0
Формат : MPEG-4 Visual
Профиль формата : Advanced Simple@L5
Параметр BVOP формата : 2
Параметр QPel формата : Нет
Параметр GMC формата : Без точки перехода
Параметр матрицы формата : Default (MPEG)
Режим смешивания : Сжатый битовый поток
Идентификатор кодека : XVID
Идентификатор кодека/Подсказка : XviD
Продолжительность : 50 м.
Битрейт : 1144 Кбит/сек
Ширина : 704 пикселя
Высота : 528 пикселей
Соотношение сторон : 4:3
Частота кадров : 23,976 кадра/сек
Цветовое пространство : YUV
Субдискретизация насыщенности : 4:2:0
Битовая глубина : 8 бит
Тип развёртки : Прогрессивная
Метод сжатия : С потерями
Бит/(Пиксели*Кадры) : 0.128
Размер потока : 409 Мбайт (81%)
Библиотека кодирования : XviD 1.2.1 (UTC 2008-12-04)

Аудио
Идентификатор : 1
Формат : AC-3
Формат/Информация : Audio Coding 3
Расширение режима : CM (complete main)
Параметр Endianness формата : Big
Идентификатор кодека : 2000
Продолжительность : 50 м.
Вид битрейта : Постоянный
Битрейт : 256 Кбит/сек
Каналы : 6 каналов
Расположение каналов : Front: L C R, Side: L R, LFE
Частота : 48,0 КГц
Битовая глубина : 16 бит
Метод сжатия : С потерями
Размер потока : 91,6 Мбайт (18%)
Выравнивание : Разделение по промежуткам
Продолжительность промежутка : 42 мс. (1,00 видеокадр)
Время предзагрузки промежутка : 500 мс.






Скриншоты для ознакомления









Релиз группа:

Автор рипа:
Залил: YArl
Размер скачиваемого торрента: 1.97 GB (2115684352 Bytes)

На мосту (2008) DVDRip - от NovaLan торрент скачать бесплатно
загрузка...
Рейтинг →
 (голосов: 1, оценка 4/5, голосовать можно 1 раз )

Другие торренты по теме:



    Комментарии (0):

    Информация

    Информация

      Посетители, находящиеся в группе Гости, не могут оставлять комментарии в данной новости.

      ↓ Меню



      ↓ Опрос

      А Вы добавили сайт в закладки?
      Да
      Не


      Top 10 за неделю (Фильмы)