.
Авторизация | Регистрация
» » Непрощенная / Unforgiven (2009) HDTVRip 720p от HDClub торрент скачать бесплатно




    Непрощенная / Unforgiven (2009) HDTVRip 720p от HDClub торрент скачать бесплатно

    Опубликовал: Админ | Дата: 27-02-2015, 11:09 | Просмотров: 301



    Детально о кино
    Русское название: Непрощенная
    Русское название в мировом прокате: Unforgiven
    Создали в: 2009
    Категория жанра: драма
    Главный режиссер: Дэвид Эванс
    Актеры: Сиобэн Финнеран, Джемма Редгрейв, Ребека Стэтон, Сюранна Джоунс, Дэрил Фишвик, Филип Джервис, Шерри Ормерод, Эмили Бичем, Питер Дэвисон

    Сюжет фильма:
    Рут 15 лет провела в тюрьме за убийство двух полицейских. Она стремится начать новую жизнь, но как преодолеть вражду и ненависть людей, как поверить в себя, как заслужить доверие близких? Тогда много лет назад она бросила свою сестренку, которая вряд ли сейчас ее вспомнит, но Рут непременно должна ее найти… Она пытается жить настоящим, но прошлое не отступает.



    Снималось в: Великобритания
    Время просмотра: 3 x ~ 00:45:00
    Перевод текста: Профессиональный (многоголосый закадровый) Кинопоказ

    Файл
    Кодек для видео: x264
    Качество фильма: HDTVRip 720p
    Информация о видео: 1280x720 at 25 fps, x264@L4.1, ~5466 Kbps avg
    Информация о звуке:
    Аудио 1: Russian: 48 kHz, AC3, 2/0 (L,R) ch, ~192.00 kbps avg |Многоголосый закадровый, Кинопоказ|
    Аудио 2: English: 48 kHz, AC3, 3/2 (L,C,R,l,r) LFE ch, ~448.00 kbps avg

    Список серий

    01: Part 1 / Часть 1
    02: Part 2 / Часть 2
    03: Part 3 / Часть 3
    MediaInfo

    Общее
    Уникальный идентификатор : 205510881628677741946059799242032135329 (0x9A9BF4C1D4726A96AC829B6C1CD1BCA1)
    Полное имя : Unforgiven.S01.2009.720p.HDTV.Rus.Eng.HDCLUBUnforgiven.Part.1.2009.720p.HDTV.Rus.Eng.HDCLUB.mkv
    Формат : Matroska
    Версия формата : Version 4 / Version 2
    Размер файла : 2,00 Гбайт
    Продолжительность : 45 м.
    Общий поток : 6230 Кбит/сек
    Дата кодирования : UTC 2013-12-25 20:15:20
    Программа кодирования : mkvmerge v6.6.0 (;The Edge Of The In Between;) built on Dec 1 2013 17:55:00
    Библиотека кодирования : libebml v1.3.0 libmatroska v1.4.1

    Видео
    Идентификатор : 1
    Формат : AVC
    Формат/Информация : Advanced Video Codec
    Профиль формата : High@L4.1
    Параметр CABAC формата : Да
    Параметр ReFrames формата : 9 кадров
    Идентификатор кодека : V_MPEG4/ISO/AVC
    Продолжительность : 45 м.
    Битрейт : 5466 Кбит/сек
    Ширина : 1280 пикселей
    Высота : 720 пикселей
    Соотношение сторон : 16:9
    Режим частоты кадров : Постоянный
    Частота кадров : 25,000 кадров/сек
    Цветовое пространство : YUV
    Субдискретизация насыщенности : 4:2:0
    Битовая глубина : 8 бит
    Тип развёртки : Прогрессивная
    Бит/(Пиксели*Кадры) : 0.237
    Размер потока : 1,75 Гбайт (88%)
    Заголовок : Unforgiven. Series 01 Episode 01 UK
    Библиотека кодирования : x264 core 140 r2377 1ca7bb9
    Настройки программы : cabac=1 / ref=9 / deblock=1:-3:-3 / analyse=0x3:0x133 / me=umh / subme=10 / psy=1 / psy_rd=1.10:0.00 / mixed_ref=1 / me_range=32 / chroma_me=1 / trellis=2 / 8x8dct=1 / cqm=0 / deadzone=21,11 / fast_pskip=1 / chroma_qp_offset=-2 / threads=16 / lookahead_threads=2 / sliced_threads=0 / nr=0 / decimate=1 / interlaced=0 / bluray_compat=0 / constrained_intra=0 / bframes=7 / b_pyramid=2 / b_adapt=2 / b_bias=0 / direct=3 / weightb=1 / open_gop=0 / weightp=2 / keyint=250 / keyint_min=23 / scenecut=40 / intra_refresh=0 / rc_lookahead=40 / rc=crf / mbtree=1 / crf=14.0 / qcomp=0.70 / qpmin=0 / qpmax=40 / qpstep=4 / vbv_maxrate=50000 / vbv_bufsize=50000 / crf_max=0.0 / nal_hrd=none / filler=0 / ip_ratio=1.25 / aq=1:0.70
    Язык : English
    Default : Да
    Forced : Нет

    Аудио #1
    Идентификатор : 2
    Формат : AC-3
    Формат/Информация : Audio Coding 3
    Расширение режима : CM (complete main)
    Параметр Endianness формата : Big
    Идентификатор кодека : A_AC3
    Продолжительность : 45 м.
    Вид битрейта : Постоянный
    Битрейт : 192 Кбит/сек
    Каналы : 2 канала
    Расположение каналов : Front: L R
    Частота : 48,0 КГц
    Битовая глубина : 16 бит
    Метод сжатия : С потерями
    Размер потока : 63,1 Мбайт (3%)
    Заголовок : AC3 2.0 @ 192 kbps - Кинопоказ
    Язык : Russian
    Default : Да
    Forced : Нет

    Аудио #2
    Идентификатор : 3
    Формат : AC-3
    Формат/Информация : Audio Coding 3
    Расширение режима : CM (complete main)
    Параметр Endianness формата : Big
    Идентификатор кодека : A_AC3
    Продолжительность : 45 м.
    Вид битрейта : Постоянный
    Битрейт : 448 Кбит/сек
    Каналы : 6 каналов
    Расположение каналов : Front: L C R, Side: L R, LFE
    Частота : 48,0 КГц
    Битовая глубина : 16 бит
    Метод сжатия : С потерями
    Задержка видео : 32 мс.
    Размер потока : 147 Мбайт (7%)
    Заголовок : AC3 5.1 @ 448 kbps
    Язык : English
    Default : Нет
    Forced : Нет
    Скриншоты для ознакомления





    Релиз подготовил: by HPotter
    Спасибо Baggio за звук.
    Был удален логотип канала BBC HD.
    Размер скачиваемого торрента: 5.95 GB (6392080541 Bytes)

    Непрощенная / Unforgiven (2009) HDTVRip 720p от HDClub торрент скачать бесплатно
    загрузка...
    Рейтинг →
     (голосов: 1, оценка 5/5, голосовать можно 1 раз )

    Другие торренты по теме:

  • Непрощенный / Unforgiven (1992) BDRip 1080p торрент скачать бесплатно
  • Непрощенный / Unforgiven / Yurusarezaru mono (2013) HDRip от RG Orient Extreme | L1,L1 торрент скачать бесплатно
  • Непрощенный / Unforgiven / Yurusarezaru mono (2013) HDRip от RG Orient Extreme | L1 торрент скачать бесплатно
  • Непрощенный / Unforgiven (1992) BDRip-AVC от MediaClub | D, P, P2, A скачать через торрент бесплатно


    • Комментарии (0):

      Информация

      Информация

        Посетители, находящиеся в группе Гости, не могут оставлять комментарии в данной новости.

        ↓ Меню



        ↓ Опрос

        А Вы добавили сайт в закладки?
        Да
        Не


        Top 10 за неделю (Фильмы)