.
Авторизация | Регистрация
Хочешь лучшие торренты? Добавь свой email!
Добавить
» » Спасите Конкорд / Concorde Affaire 79 (1979) HDRip от Leon-masl | D, P скачать через торрент бесплатно




    Спасите Конкорд / Concorde Affaire 79 (1979) HDRip от Leon-masl | D, P скачать через торрент бесплатно

    Опубликовал: Админ | Дата: 27-02-2015, 11:09 | Просмотров: 276



    Детально о кино
    Русское название: Спасите Конкорд
    Русское название в мировом прокате: Concorde Affaire ;79
    Создали в: 1979
    Категория жанра: Боевик, триллер, криминал
    Главный режиссер: Руджеро Деодато
    Актеры: Джеймс Франсискус, Мимзи Фармер, Венантино Венантини, Фьямма Мальоне, Эдмунд Пурдом, Франсиско Шарль, Франческо Карнелутти, Оттавиано Дэлль’Акква, Альдо Барберито, Роберто Санти

    Сюжет фильма:
    Конкуренты готовы на все, чтобы не допустить Конкорд на мировой рынок. Во время первого испытательного полета белоснежный лайнер по неизвестным причинам падает в воды Карибского моря. Чудом выжившую стюардессу спасают рыбаки.
    Как только весть доходит до скандально-известного журналиста Мозеса Броди, он вылетает на Антильские острова, чтобы расследовать трагедию. Начинается смертельная схватка с неуловимыми и жестокими преступниками...
    Тайна гибели самолета - на дне Карибского моря. Единственный свидетель - исчез. За главным героем идет настоящая охота. Времени - в обрез: второй Конкорд уже вылетел из Лондона, и пассажиры не подозревают о нависшей над ними смертельной опасности...




    Снималось в: Италия, Dania Film, National Cinematografica
    Время просмотра: 01:31:30
    Перевод текста: Профессиональный (дублированный)|Союзмультфильм|, Профессиональный (многоголосый закадровый)

    Файл
    Кодек для видео: XviD
    Качество фильма: HDRip с |BDRip 1080p|
    Информация о видео: 720x304, 23.976 fps, 1766 Kbps
    Информация о звуке:
    Аудио 1: AC3, 192 kbps, 2 ch, 48,0 khz....DUB.
    Аудио 2: AC3, 192 kbps, 2 ch, 48,0 khz....MVO
    MI
    Общее
    Полное имя : Concorde.Affaire.1979.HDRip.avi
    Формат : AVI
    Формат/Информация : Audio Video Interleave
    Размер файла : 1,44 Гбайт
    Продолжительность : 1 ч. 35 м.
    Общий поток : 2164 Кбит/сек
    Программа кодирования : VirtualDubMod 1.5.10.2 (build 2542/release)
    Библиотека кодирования : VirtualDubMod build 2542/release

    Видео
    Идентификатор : 0
    Формат : MPEG-4 Visual
    Профиль формата : Advanced Simple@L5
    Параметр BVOP формата : 1
    Параметр QPel формата : Нет
    Параметр GMC формата : Без точки перехода
    Параметр матрицы формата : Выборочная
    Идентификатор кодека : XVID
    Идентификатор кодека/Подсказка : XviD
    Продолжительность : 1 ч. 35 м.
    Битрейт : 1766 Кбит/сек
    Ширина : 720 пикс.
    Высота : 304 пикс.
    Соотношение сторон : 2,35:1
    Частота кадров : 23,976 кадр/сек
    Цветовое пространство : YUV
    Подвыборка цветности : 4:2:0
    Битовая глубина : 8 бит
    Тип развёртки : Прогрессивная
    Метод сжатия : С потерями
    Бит/(Пиксели*Кадры) : 0.337
    Размер потока : 1,18 Гбайт (82%)
    Библиотека кодирования : XviD 73

    Аудио #1
    Идентификатор : 1
    Формат : AC-3
    Формат/Информация : Audio Coding 3
    Расширение режима : CM (complete main)
    Идентификатор кодека : 2000
    Продолжительность : 1 ч. 35 м.
    Вид битрейта : Постоянный
    Битрейт : 192 Кбит/сек
    Канал(ы) : 2 канала(ов)
    Расположение каналов : Front: L R
    Частота : 48,0 КГц
    Битовая глубина : 16 бит
    Метод сжатия : С потерями
    Размер потока : 131 Мбайт (9%)
    Выравнивание : Разделение по промежуткам
    Продолжительность промежутка : 42 мс. (1,00 видеокадр)
    Время предзагрузки промежутка : 500 ms

    Аудио #2
    Идентификатор : 2
    Формат : AC-3
    Формат/Информация : Audio Coding 3
    Расширение режима : CM (complete main)
    Идентификатор кодека : 2000
    Продолжительность : 1 ч. 35 м.
    Вид битрейта : Постоянный
    Битрейт : 192 Кбит/сек
    Канал(ы) : 2 канала(ов)
    Расположение каналов : Front: L R
    Частота : 48,0 КГц
    Битовая глубина : 16 бит
    Метод сжатия : С потерями
    Размер потока : 131 Мбайт (9%)
    Выравнивание : Разделение по промежуткам
    Продолжительность промежутка : 42 мс. (1,00 видеокадр)
    Время предзагрузки промежутка : 500 ms
    Скриншоты для ознакомления


    Релиз подготовил: Leon-masl
    Залил: leon-masl
    Размер скачиваемого торрента: 1.44 GB (1547399168 Bytes)

    Спасите Конкорд / Concorde Affaire 79 (1979) HDRip от Leon-masl | D, P скачать через торрент бесплатно
    загрузка...
    Рейтинг →
     (голосов: 1, оценка 4/5, голосовать можно 1 раз )

    Другие торренты по теме:

  • Спасите Конкорд / Concorde Affaire 79 (1979) DVD5
  • Спасите Конкорд / Concorde Affaire 79 (1979) BDRip 720p скачать через торрент бесплатно
  • Спасите Конкорд / Concorde Affaire (1979) HDRip-AVC | iPhone | D,P
  • Спасите Конкорд / Concorde Affaire 79 (1979) DVD9 | P
  • Спасите Конкорд / Concorde Affaire 79 (1979) DVD9 | P


    • Комментарии (0):

      Информация

      Информация

        Посетители, находящиеся в группе Гости, не могут оставлять комментарии в данной новости.

        ↓ Меню



        ↓ Опрос

        А Вы добавили сайт в закладки?
        Да
        Не


        Top 10 за месяц (Фильмы)