.
Авторизация | Регистрация
» » Пугало / Scarecrow (2013) DVDRip-AVC | L1 скачать через торрент бесплатно




    Пугало / Scarecrow (2013) DVDRip-AVC | L1 скачать через торрент бесплатно

    Опубликовал: Админ | Дата: 27-02-2015, 11:09 | Просмотров: 247



    Детально о кино
    Русское название: Пугало
    Русское название в мировом прокате: Scarecrow
    Создали в: 2013
    Категория жанра: ужасы, фантастика
    Главный режиссер: Шелдон Уилсон
    Актеры: Лейси Чаберт, Робин Данн, Ричард Хэрмон, Бриттни Уилсон, Николь Муньос, Джулия Максвелл, Айэйн Белчер, Джерри Вассерман, Карло Маркс, Лэни МакОли

    Сюжет фильма: Группа подростков сталкивается со злобным пугалом…



    Снималось в: США, Канада
    Время просмотра: 01:22:31
    Тип перевода: Любительское (одноголосое) Асинхрон

    Файл
    Тип видео: MKV
    Качество фильма: DVDRip-AVC
    Информация о видео: 1948 kb/s, 1024x576
    Информация о звуке: Russian: MP3, 128 kb/s (2 ch) / English: AC3, 448 kb/s (6 ch)





    MI
    Format : Matroska
    Format version : Version 4 / Version 2
    File size : 1.46 GiB
    Duration : 1h 22mn
    Overall bit rate : 2 526 Kbps
    Encoded date : UTC 2013-12-28 15:09:42
    Writing application : mkvmerge v6.1.0 (;Old Devil;) built on Mar 4 2013 09:10:42
    Writing library : libebml v1.3.0 libmatroska v1.4.0

    Video
    ID : 1
    Format : AVC
    Format/Info : Advanced Video Codec
    Format profile : High@L4.1
    Format settings, CABAC : Yes
    Format settings, ReFrames : 11 frames
    Codec ID : V_MPEG4/ISO/AVC
    Duration : 1h 22mn
    Bit rate : 1 948 Kbps
    Width : 1 024 pixels
    Height : 576 pixels
    Display aspect ratio : 16:9
    Frame rate : 25.000 fps
    Color space : YUV
    Chroma subsampling : 4:2:0
    Bit depth : 8 bits
    Scan type : Progressive
    Bits/(Pixel*Frame) : 0.132
    Stream size : 1.09 GiB (75%)
    Writing library : x264 core 130 r2273 b3065e6
    Encoding settings : cabac=1 / ref=11 / deblock=1:-2:-1 / analyse=0x3:0x133 / me=umh / subme=9 / psy=1 / psy_rd=1.00:0.20 / mixed_ref=1 / me_range=32 / chroma_me=1 / trellis=2 / 8x8dct=1 / cqm=0 / deadzone=21,11 / fast_pskip=0 / chroma_qp_offset=-3 / threads=6 / lookahead_threads=1 / sliced_threads=0 / nr=0 / decimate=0 / interlaced=0 / bluray_compat=0 / constrained_intra=0 / bframes=4 / b_pyramid=2 / b_adapt=2 / b_bias=0 / direct=3 / weightb=1 / open_gop=0 / weightp=2 / keyint=250 / keyint_min=25 / scenecut=40 / intra_refresh=0 / rc=2pass / mbtree=0 / bitrate=1948 / ratetol=1.0 / qcomp=0.60 / qpmin=0 / qpmax=69 / qpstep=4 / cplxblur=20.0 / qblur=0.5 / ip_ratio=1.40 / pb_ratio=1.30 / aq=1:1.00
    Language : English
    Default : Yes
    Forced : No

    Audio #1
    ID : 2
    Format : MPEG Audio
    Format version : Version 1
    Format profile : Layer 3
    Mode : Joint stereo
    Mode extension : MS Stereo
    Codec ID : A_MPEG/L3
    Codec ID/Hint : MP3
    Duration : 1h 22mn
    Bit rate mode : Constant
    Bit rate : 128 Kbps
    Channel(s) : 2 channels
    Sampling rate : 48.0 KHz
    Compression mode : Lossy
    Stream size : 75.5 MiB (5%)
    Language : Russian
    Default : Yes
    Forced : No

    Audio #2
    ID : 3
    Format : AC-3
    Format/Info : Audio Coding 3
    Mode extension : CM (complete main)
    Format settings, Endianness : Big
    Codec ID : A_AC3
    Duration : 1h 22mn
    Bit rate mode : Constant
    Bit rate : 448 Kbps
    Channel(s) : 6 channels
    Channel positions : Front: L C R, Side: L R, LFE
    Sampling rate : 48.0 KHz
    Bit depth : 16 bits
    Compression mode : Lossy
    Stream size : 264 MiB (18%)
    Language : English
    Default : No
    Forced : No
    Скриншоты для ознакомления


    Рип: 03nazar03
    Размер скачиваемого торрента: 1.46 GB (1563206181 Bytes)

    Пугало / Scarecrow (2013) DVDRip-AVC | L1 скачать через торрент бесплатно
    загрузка...
    Рейтинг →
     (голосов: 1, оценка 3/5, голосовать можно 1 раз )

    Другие торренты по теме:

  • Ночь пугала / Night of the Scarecrow (1995) BDRip 720р | A торрент скачать бесплатно
  • Пугало / Ravens Hollow (2011) DVDRip | L1 торрент скачать бесплатно
  • Сказка про солдатскую дочку и волшебное пугало (2007) WEBRip скачать через торрент бесплатно
  • Темная ночь пугала / Dark Night of the Scarecrow (1981) BDRip 720p от NovaLan скачать через торрент бесплатно
  • Темная ночь пугала / Dark Night of the Scarecrow (1981) BDRip 1080p от NovaLan скачать через торрент бесплатно
  • Пугало / Scarecrow (2013) DVDRip от Асинхрон | L1 скачать через торрент бесплатно
  • Пугало / Scarecrow (1973) DVDRip скачать через торрент бесплатно
  • Пугало / Scarecrow (2013) BDRip 720p от CINEMANIA | L1 торрент скачать бесплатно


    • Комментарии (0):

      Информация

      Информация

        Посетители, находящиеся в группе Гости, не могут оставлять комментарии в данной новости.

        ↓ Меню



        ↓ Опрос

        А Вы добавили сайт в закладки?
        Да
        Не


        Top 10 за неделю (Фильмы)