.
Авторизация | Регистрация
» » Пьяный рассвет / Tequila Sunrise (1988) HDRip от Leon-masl скачать через торрент бесплатно




    Пьяный рассвет / Tequila Sunrise (1988) HDRip от Leon-masl скачать через торрент бесплатно

    Опубликовал: Админ | Дата: 27-02-2015, 11:09 | Просмотров: 299



    Детально о кино
    Русское название: Пьяный рассвет
    Русское название в мировом прокате: Tequila Sunrise
    Создали в: 1988
    Категория жанра: Боевик, Драма, Криминал
    Главный режиссер: Роберт Таун
    Актеры: Мел Гибсон, Курт Расселл, Мишель Пфайффер, Рауль Хулиа, Дж.Т. Уолш, Арлисс Ховард, Энн Магнусон, Эрай Гросс, Бадд Боэттичер

    Сюжет фильма:
    Билл торгует наркотиками уже 15 лет и хочет завязать. Его друг детства Ник - полицейский, и он полон желания поймать Билла с поличным. Оба они неравнодушны к владелице итальянского ресторана Джоанне. Любовная линия органично вписывается в добротную схему приключенческого боевика, где чувствуется рука Тауна, автора сценариев знаменитых лент Китайский квартал и Последний наряд. Фильм номинировался на Оскар за лучшую операторскую работу.




    Снималось в: США
    Киностудия: Warner Brothers
    Время просмотра: 01:55:17
    Перевод текста: Профессиональный (полное дублирование) Мост-Видео

    Файл
    Кодек для видео: XviD
    Качество фильма: HDRip с |BDRip 1080 p|
    Информация о видео: 720 x 400, 23,976 fps, 1479 kbps
    Информация о звуке: AC3, 192 kbps, 2 ch, 48,0 khz
    MI
    Общее
    Полное имя : tequila.sunrise.1988.HDRip.avi
    Формат : AVI
    Формат/Информация : Audio Video Interleave
    Размер файла : 1,35 Гбайт
    Продолжительность : 1 ч. 55 м.
    Общий поток : 1681 Кбит/сек
    Программа кодирования : VirtualDubMod 1.5.10.2 (build 2542/release)
    Библиотека кодирования : VirtualDubMod build 2542/release

    Видео
    Идентификатор : 0
    Формат : MPEG-4 Visual
    Профиль формата : Advanced Simple@L5
    Параметр BVOP формата : 1
    Параметр QPel формата : Нет
    Параметр GMC формата : Без точки перехода
    Параметр матрицы формата : Выборочная
    Идентификатор кодека : XVID
    Идентификатор кодека/Подсказка : XviD
    Продолжительность : 1 ч. 55 м.
    Битрейт : 1479 Кбит/сек
    Ширина : 720 пикс.
    Высота : 400 пикс.
    Соотношение сторон : 16:9
    Частота кадров : 23,976 кадр/сек
    Цветовое пространство : YUV
    Подвыборка цветности : 4:2:0
    Битовая глубина : 8 бит
    Тип развёртки : Прогрессивная
    Метод сжатия : С потерями
    Бит/(Пиксели*Кадры) : 0.214
    Размер потока : 1,19 Гбайт (88%)
    Библиотека кодирования : XviD 73

    Аудио
    Идентификатор : 1
    Формат : AC-3
    Формат/Информация : Audio Coding 3
    Расширение режима : CM (complete main)
    Идентификатор кодека : 2000
    Продолжительность : 1 ч. 55 м.
    Вид битрейта : Постоянный
    Битрейт : 192 Кбит/сек
    Канал(ы) : 2 канала(ов)
    Расположение каналов : Front: L R
    Частота : 48,0 КГц
    Битовая глубина : 16 бит
    Метод сжатия : С потерями
    Размер потока : 158 Мбайт (11%)
    Выравнивание : Разделение по промежуткам
    Продолжительность промежутка : 42 мс. (1,00 видеокадр)
    Время предзагрузки промежутка : 500 ms
    Скриншоты для ознакомления


    Релиз подготовил: Leon-masl
    Залил: leon-masl
    Размер скачиваемого торрента: 1.35 GB (1452929024 Bytes)

    Пьяный рассвет / Tequila Sunrise (1988) HDRip от Leon-masl скачать через торрент бесплатно
    загрузка...
    Рейтинг →
     (голосов: 1, оценка 3/5, голосовать можно 1 раз )

    Другие торренты по теме:

  • Пьяный рассвет / Tequila Sunrise (1988) BDRip 720p от MediaClub | D, P, P2, A торрент скачать бесплатно
  • Пьяный рассвет / Tequila Sunrise (1988) BDRip 1080p от MediaClub | D, P, P2, A торрент скачать бесплатно
  • Пьяный рассвет / Tequila Sunrise (1988) BDRip-AVC от MediaClub | D, P, P2, A скачать через торрент бесплатно
  • Пьяный рассвет / Tequila Sunrise (1988) BDRip от HQCLUB торрент скачать бесплатно


    • Комментарии (0):

      Информация

      Информация

        Посетители, находящиеся в группе Гости, не могут оставлять комментарии в данной новости.

        ↓ Меню



        ↓ Опрос

        А Вы добавили сайт в закладки?
        Да
        Не


        Top 10 за неделю (Фильмы)