.
Авторизация | Регистрация
Хочешь лучшие торренты? Добавь свой email!
Добавить
» » Вам письмо / Youve Got Mail (1998) BDRip 720p by msltel | D, A скачать через торрент бесплатно




    Вам письмо / Youve Got Mail (1998) BDRip 720p by msltel | D, A скачать через торрент бесплатно

    Опубликовал: Админ | Дата: 27-02-2015, 11:09 | Просмотров: 235



    Русское название: Вам письмо
    Русское название в мировом прокате: You;ve Got Mail
    Создали в: 1998
    Категория жанра: Драма, мелодрама, комедия
    Снималось в: США, Warner Bros. Pictures
    Главный режиссер: Нора Эфрон
    Актеры: Том Хэнкс, Мег Райан, Грег Киннер, Паркер Поузи, Жан Степлтон, Стив Зан, Хезер Бёрнс, Дэйв Шапелл, Дэбни Коулмэн, Джон Рэндольф, Дебора Раш, Холли Херш, Джеффри Скаперротта, Кэра Сеймур, Кэти Финнеран, Майкл Бадалукко, Винни Кокс, Брюс Джей Фридман, Сара Рамирез, Ховард Шпигель, Дайан Соколов, Джули Касс, Рейко Эйлсворт, Нина Зои Лам, Мэгги Мерфи, Мишель Блэйкли, Мередит Уайт, Дайян Дрейер, Лейла Николс, Мэри А. Келли, Крис Мессина, Андре Соглиуззо, Ричард Коэн, Ник Браун, Билл МакХью, Сантьяго Киньонес, Линн Гроссман, Николь Бернадетт, Джейн Адамс, Элвуд Эдвардс, Альфонсо Гомез-Рейон, Гидеон Джейкобс, Брик Мэйсон, Скотт Уолкер Мулин, Кэти Сагона

    Сюжет фильма: Джо Фокс и Кэтлин Келли переписываются через Интернет. У Джо есть девушка, у Кэтлин — парень, но излить душу они могут лишь друг другу. Кэтлин принадлежит маленький книжный магазинчик детской литературы под названием Магазин за углом, перешедший ей от матери. Для неё, трёх её сотрудников и покупателей это не просто место работы — это оазис тепла, человечности и культуры. Джо владеет сетью огромных книжных супермаркетов Фокс и сыновья. Он открывает такой комплекс рядом с магазином Кэтлин и заходит к ней якобы купить несколько книжек для детей. Так состоялось их живое знакомство. Чуть позже Кэтлин узнаёт, что Джо и есть владелец супермаркета, грозящего ей неизбежным разорением — цены там намного ниже. Естественно, она сразу же возненавидела бездушного конкурента. А в Интернете их роман продолжался…

    Качество фильма: BDRip 720p
    Размер скачиваемого торрента: 7.99 ГБ
    Время просмотра: 01:59:24

    Информация о видео: MPEG-4 AVC, 5000 Кбит/с, 1280x720
    Информация о звуке 1: русский, 48 kHz, AC3, 6 ch, 384 kbps avg, Дублированный
    Информация о звуке 2: русский, 48 kHz, AC3, 6 ch, 448 kbps avg, Авторский, Андрей Гаврилов
    Информация о звуке 3: русский, 48 kHz, AC3, 6 ch, 384 kbps avg, Авторский, Василий Горчаков
    Информация о звуке 4: русский, 48 kHz, AC3, 6 ch, 448 kbps avg, Авторский, Юрий Живов
    Информация о звуке 5: русский, 48 kHz, AC3, 2 ch, 192 kbps avg, Авторский, Александр Кашкин (Первомайский)

    Внешние файлы
    Информация о звуке: русский, 48 kHz, DTS, 6 ch, 1509 kbps avg, Авторский, Андрей Гаврилов
    Информация о звуке: русский, 48 kHz, DTS, 6 ch, 768 kbps avg, Авторский, Юрий Живов
    Информация о звуке: английский, 48 kHz, AC3, 6 ch, 448 kbps avg, Оригинал
    Субтитры: русские
    Субтитры: английские

    Имеются неименованные главы/чаптеры.

    Исходник: ollan (Кинозал)

    Сравнение с исходником



    Награды
    Золотой глобус, 1999 год
    Номинации (1):
    Лучшая женская роль (комедия или мюзикл) (Мег Райан)
    MediaInfo Лог х264
    Общее
    Полное имя : E:VideoVam.pismo.1998.x264.BDRip.720pVam.pismo.1998.AVO.rus.А.Гаврилов.dts
    Формат : DTS
    Формат/Информация : Digital Theater Systems
    Размер файла : 1,26 Гбайт
    Продолжительность : 1 ч. 59 м.
    Режим общего битрейта : Постоянный
    Общий поток : 1509 Кбит/сек

    Аудио
    Формат : DTS
    Формат/Информация : Digital Theater Systems
    Режим : 16
    Параметр Endianness формата : Big
    Продолжительность : 1 ч. 59 м.
    Вид битрейта : Постоянный
    Битрейт : 1509 Кбит/сек
    Каналы : 6 каналов
    Расположение каналов : Front: L C R, Side: L R, LFE
    Частота : 48,0 КГц
    Битовая глубина : 24 бит
    Метод сжатия : С потерями
    Размер потока : 1,26 Гбайт (100%)

    Общее
    Полное имя : E:VideoVam.pismo.1998.x264.BDRip.720pVam.pismo.1998.AVO.rus.Ю.Живов.dts
    Формат : DTS
    Формат/Информация : Digital Theater Systems
    Размер файла : 656 Мбайт
    Продолжительность : 1 ч. 59 м.
    Режим общего битрейта : Постоянный
    Общий поток : 768 Кбит/сек

    Аудио
    Формат : DTS
    Формат/Информация : Digital Theater Systems
    Режим : 16
    Параметр Endianness формата : Big
    Продолжительность : 1 ч. 59 м.
    Вид битрейта : Постоянный
    Битрейт : 768 Кбит/сек
    Каналы : 6 каналов
    Расположение каналов : Front: L C R, Side: L R, LFE
    Частота : 48,0 КГц
    Битовая глубина : 24 бит
    Метод сжатия : С потерями
    Размер потока : 656 Мбайт (100%)

    Общее
    Полное имя : E:VideoVam.pismo.1998.x264.BDRip.720pVam.pismo.1998.eng.srt
    Формат : SubRip
    Размер файла : 130 Кбайт

    Текст
    Формат : SubRip
    Метод сжатия : Без потерь

    Общее
    Полное имя : E:VideoVam.pismo.1998.x264.BDRip.720pVam.pismo.1998.Original.eng.ac3
    Формат : AC-3
    Формат/Информация : Audio Coding 3
    Размер файла : 383 Мбайт
    Продолжительность : 1 ч. 59 м.
    Режим общего битрейта : Постоянный
    Общий поток : 448 Кбит/сек

    Аудио
    Формат : AC-3
    Формат/Информация : Audio Coding 3
    Расширение режима : CM (complete main)
    Параметр Endianness формата : Big
    Продолжительность : 1 ч. 59 м.
    Вид битрейта : Постоянный
    Битрейт : 448 Кбит/сек
    Каналы : 6 каналов
    Расположение каналов : Front: L C R, Side: L R, LFE
    Частота : 48,0 КГц
    Битовая глубина : 16 бит
    Метод сжатия : С потерями
    Размер потока : 383 Мбайт (100%)

    Общее
    Полное имя : E:VideoVam.pismo.1998.x264.BDRip.720pVam.pismo.1998.rus.srt
    Формат : SubRip
    Размер файла : 158 Кбайт

    Текст
    Формат : SubRip
    Метод сжатия : Без потерь

    Общее
    Уникальный идентификатор : 180023900460743571294077968415184190978 (0x876F5791431725FBA7780E543D78FE02)
    Полное имя : E:VideoVam.pismo.1998.x264.BDRip.720pVam.pismo.1998.x264.BDRip.720p.mkv
    Формат : Matroska
    Версия формата : Version 4 / Version 2
    Размер файла : 5,72 Гбайт
    Продолжительность : 1 ч. 59 м.
    Общий поток : 6857 Кбит/сек
    Название фильма : Вам письмо / You;ve Got Mail / 1998 / BDRip -- STarankov
    Дата кодирования : UTC 2013-12-28 06:18:37
    Программа кодирования : mkvmerge v6.6.0 (;The Edge Of The In Between;) built on Dec 1 2013 17:55:00
    Библиотека кодирования : libebml v1.3.0 libmatroska v1.4.1

    Видео
    Идентификатор : 1
    Формат : AVC
    Формат/Информация : Advanced Video Codec
    Профиль формата : High@L4.1
    Параметр CABAC формата : Да
    Параметр ReFrames формата : 9 кадров
    Идентификатор кодека : V_MPEG4/ISO/AVC
    Продолжительность : 1 ч. 59 м.
    Битрейт : 5000 Кбит/сек
    Ширина : 1280 пикселей
    Высота : 720 пикселей
    Соотношение сторон : 16:9
    Режим частоты кадров : Постоянный
    Частота кадров : 23,976 кадра/сек
    Цветовое пространство : YUV
    Субдискретизация насыщенности : 4:2:0
    Битовая глубина : 8 бит
    Тип развёртки : Прогрессивная
    Бит/(Пиксели*Кадры) : 0.226
    Размер потока : 4,06 Гбайт (71%)
    Библиотека кодирования : x264 core 138 r2358 9e941d1
    Залил: msltel
    Размер скачиваемого торрента: 7.99 GB (8581311040 Bytes)


    Вам письмо / Youve Got Mail (1998) BDRip 720p by msltel | D, A скачать через торрент бесплатно
    загрузка...
    Рейтинг →
     (голосов: 1, оценка 3/5, голосовать можно 1 раз )

    Другие торренты по теме:



      Комментарии (0):

      Информация

      Информация

        Посетители, находящиеся в группе Гости, не могут оставлять комментарии в данной новости.

        ↓ Меню



        ↓ Опрос

        А Вы добавили сайт в закладки?
        Да
        Не


        Top 10 за месяц (Фильмы)