.
Авторизация | Регистрация
Хочешь лучшие торренты? Добавь свой email!
Добавить
» » Акулий торнадо / Sharknado (2013) HDRip от Deadmauvlad | BaibaKo скачать через торрент бесплатно




    Акулий торнадо / Sharknado (2013) HDRip от Deadmauvlad | BaibaKo скачать через торрент бесплатно

    Опубликовал: Админ | Дата: 27-02-2015, 11:09 | Просмотров: 297



    Детально о кино
    Русское название: Шаркнадо / Акулий торнадо
    Русское название в мировом прокате: Sharknado
    Создали в: 2013
    Категория жанра: ужасы, фантастика
    Главный режиссер: Энтони Си. Ферранте

    Актеры: Тара Рид, Йен Зиринг, Джон Хёрд, Кэсси Сербо, Джэйсон Симмонз, Алекс Арлио, Нил Х. Берков, Хезер Жослин Блэр, Сумико Браун, Дайан Чэмберс

    О фильме:
    Из-за ужасного урагана Лос-Анджелес оказывается затопленным. Тысячи акул терроризируют городских жителей. Но когда на Лос-Анджелес обрушивается торнадо, ужасные морские хищники поднимаются в воздух



    Снималось в: США
    Время просмотра: 01:27:16
    Возрастные ограничения: 14
    Перевод текста: vipere, Янина Галицкая
    Тип перевода: Профессиональный (Многоголосый, закадровый) BaibaKo

    Файл
    Тип видео: AVI (XviD 7.3)
    Качество фильма: HDRip
    Информация о видео: 720x400 (1.80:1), 23.976 fps, XviD build 73 ~1061 kbps avg, 0.15 bit/pixel
    Информация о звуке: 48 kHz, AC3 Dolby Digital, 2/0 (L,R) ch, ~128 kbps
    Размер скачиваемого торрента: 747 Мб

    MI
    Общее
    Полное имя : D:Рипы выкладка DeadmauvladSharknado.2013.BaibaKo.HDRip.Deadmauvlad.avi
    Формат : AVI
    Формат/Информация : Audio Video Interleave
    Размер файла : 747 Мбайт
    Продолжительность : 1 ч. 27 м.
    Общий поток : 1196 Кбит/сек
    Режиссёр : Deadmauvlad
    Формат оригинала/Распространитель : Sharknado.2013.1080p.BluRay.x264
    Жанр : Ужасы,фантастика
    Тема : Sharknado.2013.HDRip.Deadmauvlad
    Место хранения : The Asylum,USA
    Программа кодирования : VirtualDubMod 1.5.10.3 | www.virtualdub-fr.org || (build 2550/release)
    Библиотека кодирования : VirtualDub build 35390/release
    Формат оригинала : IGUANA PublicHD
    Правообладатель : Deadmauvlad Team;s

    Видео
    Идентификатор : 0
    Формат : MPEG-4 Visual
    Профиль формата : Advanced Simple@L5
    Параметр BVOP формата : 1
    Параметр QPel формата : Нет
    Параметр GMC формата : Без точки перехода
    Параметр матрицы формата : Default (MPEG)
    Идентификатор кодека : XVID
    Идентификатор кодека/Подсказка : XviD
    Продолжительность : 1 ч. 27 м.
    Битрейт : 1062 Кбит/сек
    Ширина : 720 пикселей
    Высота : 400 пикселей
    Соотношение сторон : 16:9
    Частота кадров : 23,976 кадра/сек
    Цветовое пространство : YUV
    Субдискретизация насыщенности : 4:2:0
    Битовая глубина : 8 бит
    Тип развёртки : Прогрессивная
    Метод сжатия : С потерями
    Бит/(Пиксели*Кадры) : 0.154
    Размер потока : 663 Мбайт (89%)
    Библиотека кодирования : XviD 73

    Аудио
    Идентификатор : 1
    Формат : AC-3
    Формат/Информация : Audio Coding 3
    Расширение режима : CM (complete main)
    Параметр Endianness формата : Big
    Идентификатор кодека : 2000
    Продолжительность : 1 ч. 25 м.
    Вид битрейта : Постоянный
    Битрейт : 128 Кбит/сек
    Каналы : 2 канала
    Расположение каналов : Front: L R
    Частота : 48,0 КГц
    Битовая глубина : 16 бит
    Метод сжатия : С потерями
    Размер потока : 78,1 Мбайт (10%)
    Выравнивание : Соединение по промежуткам
    Продолжительность промежутка : 43 мс. (1,02 видеокадр)
    Время предзагрузки промежутка : 512 мс.


    Скриншоты для ознакомления:

    Залил: DJ_V.K_TV
    Размер скачиваемого торрента: 746.62 MB (782887464 Bytes)

    Акулий торнадо / Sharknado (2013) HDRip от Deadmauvlad | BaibaKo скачать через торрент бесплатно
    загрузка...
    Рейтинг →
     (голосов: 1, оценка 3/5, голосовать можно 1 раз )

    Другие торренты по теме:

  • Шаркнадо / Акулий торнадо / Sharknado (2013) HDTVRip | L1
  • Акулий торнадо / Sharknado (2013) HDTVRip | BaibaKo
  • Акулий торнадо / Sharknado (2013) HDTVRip | BaibaKo
  • Акулий торнадо / Sharknado (2013) BDRemux 1080p от MediaClub | Baibako скачать через торрент бесплатно
  • Акулий торнадо 2 / Sharknado 2: The Second One (2014) HDTV 720p | P
  • Акулий торнадо 4: Пробуждение / Sharknado 4: The 4th Awakens (2016) WEBRip | L1


    • Комментарии (0):

      Информация

      Информация

        Посетители, находящиеся в группе Гости, не могут оставлять комментарии в данной новости.

        ↓ Меню



        ↓ Опрос

        А Вы добавили сайт в закладки?
        Да
        Не


        Top 10 за месяц (Фильмы)