.
Авторизация | Регистрация
Хочешь лучшие торренты? Добавь свой email!
Добавить
» » Погнали! / Getaway (2013) BDRip-AVC | iTunes торрент скачать бесплатно




    Погнали! / Getaway (2013) BDRip-AVC | iTunes торрент скачать бесплатно

    Опубликовал: Админ | Дата: 27-02-2015, 11:09 | Просмотров: 256



    Детально о кино
    Русское название: Погнали!
    Русское название в мировом прокате: Getaway
    Создали в: 2013
    Категория жанра: боевик, криминал
    Главный режиссер: Кортни Соломон
    Актеры: Итан Хоук, Селена Гомес, Джон Войт, Ребекка Бьюдиг, Пол Фримен, Брюс Пэйн, Димо Алексиев, Велислав Павлов, Деян Ангелов

    Сюжет фильма: Бывшему гонщику Бренту приходится сесть за руль и следовать указаниям таинственного человека, чтобы спасти свою похищенную жену.



    Снималось в: США, Болгария
    Время просмотра: 01:30:04
    Тип перевода: Профессиональное (многоголосое) iTunes

    Файл
    Тип видео: MKV
    Качество фильма: BDRip-AVC
    Информация о видео: 1865 kb/s, 1024x424
    Информация о звуке: AC3, 384 kb/s (6 ch)





    MI

    Format : Matroska
    Format version : Version 4 / Version 2
    File size : 1.41 GiB
    Duration : 1h 30mn
    Overall bit rate : 2 247 Kbps
    Encoded date : UTC 2013-12-29 20:27:07
    Writing application : mkvmerge v6.1.0 (;Old Devil;) built on Mar 4 2013 09:10:42
    Writing library : libebml v1.3.0 libmatroska v1.4.0

    Video
    ID : 1
    Format : AVC
    Format/Info : Advanced Video Codec
    Format profile : High@L4.1
    Format settings, CABAC : Yes
    Format settings, ReFrames : 10 frames
    Codec ID : V_MPEG4/ISO/AVC
    Duration : 1h 30mn
    Bit rate : 1 865 Kbps
    Width : 1 024 pixels
    Height : 424 pixels
    Display aspect ratio : 2.40:1
    Frame rate : 23.976 fps
    Color space : YUV
    Chroma subsampling : 4:2:0
    Bit depth : 8 bits
    Scan type : Progressive
    Bits/(Pixel*Frame) : 0.179
    Stream size : 1.14 GiB (81%)
    Writing library : x264 core 130 r2273 b3065e6
    Encoding settings : cabac=1 / ref=10 / deblock=1:-3:-3 / analyse=0x3:0x133 / me=umh / subme=11 / psy=1 / psy_rd=1.00:0.20 / mixed_ref=1 / me_range=32 / chroma_me=1 / trellis=2 / 8x8dct=1 / cqm=0 / deadzone=21,11 / fast_pskip=0 / chroma_qp_offset=-3 / threads=12 / lookahead_threads=2 / sliced_threads=0 / nr=0 / decimate=0 / interlaced=0 / bluray_compat=0 / constrained_intra=0 / bframes=8 / b_pyramid=2 / b_adapt=2 / b_bias=0 / direct=3 / weightb=1 / open_gop=0 / weightp=2 / keyint=250 / keyint_min=23 / scenecut=40 / intra_refresh=0 / rc=2pass / mbtree=0 / bitrate=1865 / ratetol=1.0 / qcomp=0.60 / qpmin=0 / qpmax=69 / qpstep=4 / cplxblur=20.0 / qblur=0.5 / ip_ratio=1.40 / pb_ratio=1.30 / aq=1:1.00
    Language : English
    Default : Yes
    Forced : No

    Audio
    ID : 2
    Format : AC-3
    Format/Info : Audio Coding 3
    Mode extension : CM (complete main)
    Format settings, Endianness : Big
    Codec ID : A_AC3
    Duration : 1h 30mn
    Bit rate mode : Constant
    Bit rate : 384 Kbps
    Channel(s) : 6 channels
    Channel positions : Front: L C R, Side: L R, LFE
    Sampling rate : 48.0 KHz
    Bit depth : 16 bits
    Compression mode : Lossy
    Stream size : 247 MiB (17%)
    Language : Russian
    Default : Yes
    Forced : No
    Скриншоты для ознакомления

    Размер скачиваемого торрента: 1.41 GB (1518267003 Bytes)

    Погнали! / Getaway (2013) BDRip-AVC | iTunes торрент скачать бесплатно
    загрузка...
    Рейтинг →
     (голосов: 1, оценка 5/5, голосовать можно 1 раз )

    Другие торренты по теме:

  • Погнали! / Getaway (2013) BDRip-AVC от HELLYWOOD | P
  • Погнали! / Getaway (2013) BDRemux 1080p от ExKinoRay | Baibako
  • Погнали! / Getaway (2013) BDRip 1080p | Baibako
  • Погнали! / Getaway (2013) BDRip 720p | Baibako
  • Погнали! / Getaway (2013) HDRip | Baibako
  • Погнали! / Getaway (2013) BDRip-AVC | Baibako
  • Погнали! / Getaway (2013) BDRip 720p от HELLYWOOD | P скачать через торрент бесплатно
  • Погнали! / Getaway (2013) BDRip 720p от leonardo 59 Scarabey | P | Baibako скачать через торрент бесплатно


    • Комментарии (0):

      Информация

      Информация

        Посетители, находящиеся в группе Гости, не могут оставлять комментарии в данной новости.

        ↓ Меню



        ↓ Опрос

        А Вы добавили сайт в закладки?
        Да
        Не


        Top 10 за месяц (Фильмы)