.
Авторизация | Регистрация
Хочешь лучшие торренты? Добавь свой email!
Добавить
» » Задание К / Assignment K (1968) DVDRip - от NovaLan торрент скачать бесплатно


    Задание К / Assignment K (1968) DVDRip - от NovaLan торрент скачать бесплатно

    Опубликовал: Админ | Дата: 27-02-2015, 11:09 | Просмотров: 324





    Снималось в: Великобритания
    Создали в: Gildor Productions, Mazurka Productions Ltd.
    Категория жанра: Триллер
    Создали в: 1968

    Время просмотра: 01:37:17


    Перевод текста: Профессиональный многоголосый

    Оригинальная аудиодорожка: Английская

    Главный режиссер: Вэл Гест


    Актеры: Стивен Бойд, Камилла Спарв, Майкл Редгрейв, Лео МакКерн, Джереми Кемп, Роберт Хоффманн, Джэйн Мэрроу, Карл Мёнер, Виви Бах, Вернер Петерс


    Сюжет: Филипп Скотт возглавляет успешную компанию, производящую игрушки. Но куклы только прикрытие. На самом деле Скотт — руководитель секретной британской службы. В куклах он переправляет секретные микрофильмы для своих связных в Германии. Окружающие не догадываются о двойной жизни Скотта, а вот вражеские агенты узнают — и похищают его девушку, требуя, чтобы он взамен за ее свободу предоставил список всех своих агентов.



    Исходник: DVD5 R2

    Тип релиза: DVDRip

    Контейнер: AVI


    Информация о видео: 704x304 (2.32:1), 23.976 fps, XviD ~1775 kbps avg, 0.35 bit/pixel
    Информация о звуке: #1: 48 kHz, AC3 2.0 ~192.00 kbps avg (RUS)
    Информация о звуке: #2: 48 kHz, AC3 2.0 ~192.00 kbps avg (ENG)



    MediaInfo
    Общее
    Полное имя : D:1АААЗадание К.avi
    Формат : AVI
    Формат/Информация : Audio Video Interleave
    Размер файла : 1,48 Гбайт
    Продолжительность : 1 ч. 37 м.
    Общий поток : 2174 Кбит/сек
    Программа кодирования : VirtualDubMod 1.5.10.2 (build 2540/release)
    Библиотека кодирования : VirtualDubMod build 2540/release

    Видео
    Идентификатор : 0
    Формат : MPEG-4 Visual
    Профиль формата : Advanced Simple@L5
    Параметр BVOP формата : 2
    Параметр QPel формата : Нет
    Параметр GMC формата : Без точки перехода
    Параметр матрицы формата : Default (MPEG)
    Режим смешивания : Сжатый битовый поток
    Идентификатор кодека : XVID
    Идентификатор кодека/Подсказка : XviD
    Продолжительность : 1 ч. 37 м.
    Битрейт : 1776 Кбит/сек
    Ширина : 704 пикселя
    Высота : 304 пикселя
    Соотношение сторон : 2,35:1
    Частота кадров : 23,976 кадра/сек
    Цветовое пространство : YUV
    Субдискретизация насыщенности : 4:2:0
    Битовая глубина : 8 бит
    Тип развёртки : Прогрессивная
    Метод сжатия : С потерями
    Бит/(Пиксели*Кадры) : 0.346
    Размер потока : 1,21 Гбайт (82%)
    Библиотека кодирования : XviD 1.2.1 (UTC 2008-12-04)

    Аудио #1
    Идентификатор : 1
    Формат : AC-3
    Формат/Информация : Audio Coding 3
    Расширение режима : CM (complete main)
    Параметр Endianness формата : Big
    Идентификатор кодека : 2000
    Продолжительность : 1 ч. 37 м.
    Вид битрейта : Постоянный
    Битрейт : 192 Кбит/сек
    Каналы : 2 канала
    Расположение каналов : Front: L R
    Частота : 48,0 КГц
    Битовая глубина : 16 бит
    Метод сжатия : С потерями
    Размер потока : 134 Мбайт (9%)
    Выравнивание : Разделение по промежуткам
    Продолжительность промежутка : 42 мс. (1,00 видеокадр)
    Время предзагрузки промежутка : 500 мс.

    Аудио #2
    Идентификатор : 2
    Формат : AC-3
    Формат/Информация : Audio Coding 3
    Расширение режима : CM (complete main)
    Параметр Endianness формата : Big
    Идентификатор кодека : 2000
    Продолжительность : 1 ч. 37 м.
    Вид битрейта : Постоянный
    Битрейт : 192 Кбит/сек
    Каналы : 2 канала
    Расположение каналов : Front: L R
    Частота : 48,0 КГц
    Битовая глубина : 16 бит
    Метод сжатия : С потерями
    Размер потока : 134 Мбайт (9%)
    Выравнивание : Разделение по промежуткам
    Продолжительность промежутка : 42 мс. (1,00 видеокадр)
    Время предзагрузки промежутка : 500 мс.







    Скриншоты для ознакомления









    Релиз группа:

    Автор рипа:
    Залил: YArl
    Размер скачиваемого торрента: 1.48 GB (1586274304 Bytes)

    Задание К / Assignment K (1968) DVDRip - от NovaLan торрент скачать бесплатно
    загрузка...
    Рейтинг →
     (голосов: 1, оценка 5/5, голосовать можно 1 раз )

    Другие торренты по теме:

  • Задание К / Assignment K (1968) DVDRip от Dego | P


    • Комментарии (0):

      Информация

      Информация

        Посетители, находящиеся в группе Гости, не могут оставлять комментарии в данной новости.

        ↓ Меню



        ↓ Опрос

        А Вы добавили сайт в закладки?
        Да
        Не


        Top 10 за месяц (Фильмы)