.
Авторизация | Регистрация
» » Колодец и Маятник / Инквизитор / The Pit and the Pendulum / The Inquisitor (1991) HDRip от Leon-masl | A скачать через торрент бесплатно




    Колодец и Маятник / Инквизитор / The Pit and the Pendulum / The Inquisitor (1991) HDRip от Leon-masl | A скачать через торрент бесплатно

    Опубликовал: Админ | Дата: 27-02-2015, 11:09 | Просмотров: 440



    Детально о кино
    Русское название: Колодец и Маятник / Инквизитор
    Русское название в мировом прокате: The Pit and the Pendulum / The Inquisitor
    Создали в: 1991
    Категория жанра: Ужасы, Исторический, Мистика, Драма
    Главный режиссер: Стюарт Гордон
    Актеры: Лэнс Хенриксен, Стивен Ли, Уильям Дж. Норрис, Марк Марголис, Кэролин Пёрди-Гордон, Барбара Боччи, Бенито Стефанелли, Джеффри Комбс, Том Таулз, Рона Де Риччи

    Сюжет фильма:
    Конец 15 века. Святая Инквизиция, возглавляемая зловещим Торквемадой, с именем Бога на устах пытается установить в католическом мире диктатуру насилия и ужаса. Зло в белых одеждах повсюду. Оно не знает сострадания и жалости. Ведьмы, костры, таинственные ритуалы - ужасная карусель...



    Снималось в: США
    Время просмотра: 01:36:40
    Перевод текста: Авторский (одноголосый) |Юрий Живов|

    В основу сюжета положены рассказы Эдгара Аллана По Pit and the Pendulum (1843) и The Cask of Amontillado (1846)
    _______________________
    Файл
    Кодек для видео: XviD
    Качество фильма: HDRip с |BDRip 720p|
    Информация о видео: 704 x 400, 24.000 fps, 1966 kbps
    Информация о звуке: 48 kHz, AC3 Dolby Digital, 2/0 (L,R) ch, ~192.00 kbps
    MI
    Общее
    Полное имя : The.pit.and.the.Pendulum.1991.HDRip.avi
    Формат : AVI
    Формат/Информация : Audio Video Interleave
    Размер файла : 1,46 Гбайт
    Продолжительность : 1 ч. 36 м.
    Общий поток : 2167 Кбит/сек
    Программа кодирования : VirtualDubMod 1.5.10.2 (build 2542/release)
    Библиотека кодирования : VirtualDubMod build 2542/release

    Видео
    Идентификатор : 0
    Формат : MPEG-4 Visual
    Профиль формата : Advanced Simple@L5
    Параметр BVOP формата : 1
    Параметр QPel формата : Нет
    Параметр GMC формата : Без точки перехода
    Параметр матрицы формата : Выборочная
    Идентификатор кодека : XVID
    Идентификатор кодека/Подсказка : XviD
    Продолжительность : 1 ч. 36 м.
    Битрейт : 1966 Кбит/сек
    Ширина : 704 пикс.
    Высота : 400 пикс.
    Соотношение сторон : 16:9
    Частота кадров : 24,000 кадр/сек
    Цветовое пространство : YUV
    Подвыборка цветности : 4:2:0
    Битовая глубина : 8 бит
    Тип развёртки : Прогрессивная
    Метод сжатия : С потерями
    Бит/(Пиксели*Кадры) : 0.291
    Размер потока : 1,33 Гбайт (91%)
    Библиотека кодирования : XviD 73

    Аудио
    Идентификатор : 1
    Формат : AC-3
    Формат/Информация : Audio Coding 3
    Расширение режима : CM (complete main)
    Идентификатор кодека : 2000
    Продолжительность : 1 ч. 36 м.
    Вид битрейта : Постоянный
    Битрейт : 192 Кбит/сек
    Канал(ы) : 2 канала(ов)
    Расположение каналов : Front: L R
    Частота : 48,0 КГц
    Битовая глубина : 16 бит
    Метод сжатия : С потерями
    Размер потока : 132 Мбайт (9%)
    Выравнивание : Разделение по промежуткам
    Продолжительность промежутка : 42 мс. (1,00 видеокадр)
    Время предзагрузки промежутка : 500 ms
    Скриншоты для ознакомления


    Релиз подготовил: Leon-masl
    Залил: leon-masl
    Размер скачиваемого торрента: 1.46 GB (1571377152 Bytes)

    Колодец и Маятник / Инквизитор / The Pit and the Pendulum / The Inquisitor (1991) HDRip от Leon-masl | A скачать через торрент бесплатно
    загрузка...
    Рейтинг →
     (голосов: 1, оценка 3/5, голосовать можно 1 раз )

    Другие торренты по теме:

  • Козлов Юрий - Колодец пророков (2012) MP3 торрент скачать бесплатно
  • Колодец и маятник / Pit and the Pendulum (1961) HDTVRip-AVC от Тorrent-Хzona торрент скачать бесплатно
  • Инквизитор: Колодец и маятник / The Pit and the Pendulum (1991) DVDRip | A торрент скачать бесплатно
  • Колодец смерти / Мёртвая яма / Голый череп / The Dead Pit (1989) DVDRip от ExKinoRay | A скачать через торрент бесплатно
  • Колодец смерти / The Dead Pit (1989) DVDRip | A торрент скачать бесплатно
  • Инквизитор: Колодец и маятник / The Pit and the Pendulum (1991) BDRip 720p | A торрент скачать бесплатно
  • Колодец / Последние выжившие / The Well / The Last Survivors (2014) WEB-DLRip | L1 скачать торрент бесплатно
  • Колодец / The Well (2014) WEB-DLRip | L1 скачать торрент бесплатно


    • Комментарии (0):

      Информация

      Информация

        Посетители, находящиеся в группе Гости, не могут оставлять комментарии в данной новости.

        ↓ Меню



        ↓ Опрос

        А Вы добавили сайт в закладки?
        Да
        Не


        Top 10 за неделю (Фильмы)