.
Авторизация | Регистрация
» » Невинный мирный житель / Innocent Bystanders (1972) DVDRip - от NovaLan скачать через торрент бесплатно




    Невинный мирный житель / Innocent Bystanders (1972) DVDRip - от NovaLan скачать через торрент бесплатно

    Опубликовал: Админ | Дата: 27-02-2015, 11:09 | Просмотров: 315




    Снималось в: Великобритания
    Создали в: Sagittarius Productions
    Категория жанра: Боевик
    Создали в: 1972
    Время просмотра: 01:51:17

    Перевод текста: Авторский (Назаров)
    Оригинальная аудиодорожка: Английская
    Главный режиссер: Питер Коллинсон
    Актеры: Стенли Бейкер, Джеральдин Чаплин, Дональд Плезенс, Дэна Эндрюс, Сью Ллойд, Деррен Несбитт, Владек Шейбал, Уоррен Митчелл, Сек Линдер, Ховард Гурни

    Сюжет: После проваленной миссии, Джону Крейгу, британскому секретному агенту, дают последний шанс реабилитировать себя. В сопровождении израильского шпиона, Мирам Ломан, он должен разыскать советского ученого и, по обстоятельствам, решить, нужно его спасать или ликвидировать. Но, так как шеф больше не доверяет Крейгу, по его следам отправляются два молодых безжалостных агента.


    Исходник: DVD9 R2
    Тип релиза: DVDRip
    Контейнер: AVI
    Информация о видео: 720x400 (1.80:1), 23.976 fps, XviD ~2234 kbps avg, 0.32 bit/pixel
    Информация о звуке: #1: 48 kHz, AC3 2/0 ~192.00 kbps avg (RUS)
    Информация о звуке: #2: 48 kHz, AC3 2/0 ~192.00 kbps avg (ENG)

    MediaInfo
    Общее
    Полное имя : D:1АААНевинный мирный житель.avi
    Формат : AVI
    Формат/Информация : Audio Video Interleave
    Профиль формата : OpenDML
    Размер файла : 2,04 Гбайт
    Продолжительность : 1 ч. 51 м.
    Общий поток : 2626 Кбит/сек
    Программа кодирования : VirtualDubMod 1.5.10.2 (build 2540/release)
    Библиотека кодирования : VirtualDubMod build 2540/release

    Видео
    Идентификатор : 0
    Формат : MPEG-4 Visual
    Профиль формата : Advanced Simple@L5
    Параметр BVOP формата : 2
    Параметр QPel формата : Нет
    Параметр GMC формата : Без точки перехода
    Параметр матрицы формата : Default (MPEG)
    Режим смешивания : Сжатый битовый поток
    Идентификатор кодека : XVID
    Идентификатор кодека/Подсказка : XviD
    Продолжительность : 1 ч. 51 м.
    Битрейт : 2223 Кбит/сек
    Ширина : 720 пикселей
    Высота : 400 пикселей
    Соотношение сторон : 16:9
    Частота кадров : 23,976 кадра/сек
    Цветовое пространство : YUV
    Субдискретизация насыщенности : 4:2:0
    Битовая глубина : 8 бит
    Тип развёртки : Прогрессивная
    Метод сжатия : С потерями
    Бит/(Пиксели*Кадры) : 0.322
    Размер потока : 1,73 Гбайт (85%)
    Библиотека кодирования : XviD 1.2.1 (UTC 2008-12-04)

    Аудио #1
    Идентификатор : 1
    Формат : AC-3
    Формат/Информация : Audio Coding 3
    Расширение режима : CM (complete main)
    Параметр Endianness формата : Big
    Идентификатор кодека : 2000
    Продолжительность : 1 ч. 51 м.
    Вид битрейта : Постоянный
    Битрейт : 192 Кбит/сек
    Каналы : 2 канала
    Расположение каналов : Front: L R
    Частота : 48,0 КГц
    Битовая глубина : 16 бит
    Метод сжатия : С потерями
    Размер потока : 153 Мбайт (7%)
    Выравнивание : Разделение по промежуткам
    Продолжительность промежутка : 42 мс. (1,00 видеокадр)
    Время предзагрузки промежутка : 500 мс.

    Аудио #2
    Идентификатор : 2
    Формат : AC-3
    Формат/Информация : Audio Coding 3
    Расширение режима : CM (complete main)
    Параметр Endianness формата : Big
    Идентификатор кодека : 2000
    Продолжительность : 1 ч. 51 м.
    Вид битрейта : Постоянный
    Битрейт : 192 Кбит/сек
    Каналы : 1 канал
    Расположение каналов : Front: C
    Частота : 48,0 КГц
    Битовая глубина : 16 бит
    Метод сжатия : С потерями
    Размер потока : 153 Мбайт (7%)
    Выравнивание : Разделение по промежуткам
    Продолжительность промежутка : 42 мс. (1,00 видеокадр)
    Время предзагрузки промежутка : 500 мс.
    Скриншоты для ознакомления


    Релиз группа:
    Автор рипа:
    Залил: YArl
    Размер скачиваемого торрента: 2.04 GB (2191378432 Bytes)

    Невинный мирный житель / Innocent Bystanders (1972) DVDRip - от NovaLan скачать через торрент бесплатно
    загрузка...
    Рейтинг →
     (голосов: 1, оценка 5/5, голосовать можно 1 раз )

    Другие торренты по теме:

  • Невинный мирный житель / Innocent Bystanders (1972) DVDRip | L1 скачать торрент бесплатно


    • Комментарии (0):

      Информация

      Информация

        Посетители, находящиеся в группе Гости, не могут оставлять комментарии в данной новости.

        ↓ Меню



        ↓ Опрос

        А Вы добавили сайт в закладки?
        Да
        Не


        Top 10 за неделю (Фильмы)