.
Авторизация | Регистрация
» » Кекс в большом городе / The Sweeter Side of Life (2013) DVDRip | Лицензия скачать через торрент бесплатно




    Кекс в большом городе / The Sweeter Side of Life (2013) DVDRip | Лицензия скачать через торрент бесплатно

    Опубликовал: Админ | Дата: 27-02-2015, 11:09 | Просмотров: 261



    Детально о кино
    Русское название: Кекс в большом городе
    Русское название в мировом прокате: The Sweeter Side of Life
    Создали в: 2013
    Категория жанра: комедия
    Главный режиссер: Майкл Дамиан / Michael Damian
    Актеры: Кэтрин Моррис, Джеймс Бест, Аластер Маккензи, Steve Varnom, Сэм Дуглас, Стефен Хоган, Джейн Марч, Christine Oram, Джером Холдер, Джеффри Бертон

    Сюжет фильма:
    У Дезире Харпер, светской львицы с Манхэттена, есть все — богатый супруг, красавицы-подруги и прекрасный гардероб. Но когда муж бросает ее и уходит к другой, идиллии приходит конец. Лишившись всего, Дезире пытается начать все сначала. Теперь ее дни заняты совсем другим — выпечкой кексов в пекарне своего отца, расположенной в маленьком городке в штате Нью-Джерси. Вскоре она понимает, что за пределами мегаполисов тоже можно жить полной жизнью, а настоящую любовь проще встретить в одноэтажной Америке, чем на Пятой авеню.


    Официальный сайт

    Снималось в: США
    Киностудия: Motion Picture Corporation of America, Riviera Films, Hallmark Channel
    Время просмотра: 01:25:38
    Перевод текста: Профессиональный (многоголосый закадровый)

    Файл
    Кодек для видео: XviD / AC3
    Качество фильма: DVDRip
    Информация о видео: XviD, 720x400 (16:9), 25.000 fps, 2 171 Kbps (0.301 bit/pixel)
    Информация о звуке: AC-3, 48.0 KHz, 6 ch, 256 Kbps, CBR

    Скриншоты для ознакомления
    Screenshots
    MediaInfo
    General
    Complete name : /The.Sweeter.Side.of.Life_DVDRip.MVO.RUS.1400.avi
    Format : AVI
    Format/Info : Audio Video Interleave
    File size : 1.46 GiB
    Duration : 1h 25mn
    Overall bit rate : 2 433 Kbps
    Writing application : VirtualDubMod 1.5.4.1 (build 2178/release)
    Writing library : VirtualDubMod build 2178/release

    Video
    ID : 0
    Format : MPEG-4 Visual
    Format profile : Advanced Simple@L5
    Format settings, BVOP : No
    Format settings, QPel : No
    Format settings, GMC : No warppoints
    Format settings, Matrix : Custom
    Codec ID : XVID
    Codec ID/Hint : XviD
    Duration : 1h 25mn
    Bit rate : 2 171 Kbps
    Width : 720 pixels
    Height : 400 pixels
    Display aspect ratio : 16:9
    Frame rate : 25.000 fps
    Color space : YUV
    Chroma subsampling : 4:2:0
    Bit depth : 8 bits
    Scan type : Progressive
    Compression mode : Lossy
    Bits/(Pixel*Frame) : 0.301
    Stream size : 1.30 GiB (89%)
    Writing library : XviD 73

    Audio
    ID : 1
    Format : AC-3
    Format/Info : Audio Coding 3
    Mode extension : CM (complete main)
    Format settings, Endianness : Big
    Codec ID : 2000
    Duration : 1h 25mn
    Bit rate mode : Constant
    Bit rate : 256 Kbps
    Channel(s) : 6 channels
    Channel positions : Front: L C R, Side: L R, LFE
    Sampling rate : 48.0 KHz
    Bit depth : 16 bits
    Compression mode : Lossy
    Stream size : 156 MiB (10%)
    Alignment : Split accross interleaves
    Interleave, duration : 96 ms (2.41 video frames)
    Interleave, preload duration : 96 ms

    Размер скачиваемого торрента: 1.46 GB (1562763264 Bytes)

    Кекс в большом городе / The Sweeter Side of Life (2013) DVDRip | Лицензия скачать через торрент бесплатно
    загрузка...
    Рейтинг →
     (голосов: 1, оценка 3/5, голосовать можно 1 раз )

    Другие торренты по теме:

  • Крутые кексы / High School (2010) DVDRip | L1 торрент скачать бесплатно
  • VA - Кекс FM (2013) MP3 торрент скачать бесплатно
  • Обдолбанная школа / Крутые кексы / High School (2010) BDRip-AVC | L1 торрент скачать бесплатно
  • Кекс в большом городе / Признания отвергнутой женщины / The Sweeter Side of Life (2013) DVDRip-AVC | Лицензия скачать через торрент бесплатно
  • Кекс в большом городе / Признания отвергнутой женщины / The Sweeter Side of Life (2013) DVDRip от Один 777 скачать через торрент бесплатно
  • Мультиварка. 270 рецептов выпечки. Хлеб, пироги, куличи, кексы торрент скачать бесплатно
  • Крутые кексы / High School (2010) HDRip от Portablius | D скачать торрент бесплатно


    • Комментарии (0):

      Информация

      Информация

        Посетители, находящиеся в группе Гости, не могут оставлять комментарии в данной новости.

        ↓ Меню



        ↓ Опрос

        А Вы добавили сайт в закладки?
        Да
        Не


        Top 10 за неделю (Фильмы)