.
Авторизация | Регистрация
» » Уолл-стрит / Wall Street (1987 ) BDRip 720p by msltel | D, P, A | Ремастеринг скачать через торрент бесплатно




    Уолл-стрит / Wall Street (1987 ) BDRip 720p by msltel | D, P, A | Ремастеринг скачать через торрент бесплатно

    Опубликовал: Админ | Дата: 27-02-2015, 11:09 | Просмотров: 290



    Русское название: Уолл-стрит (Ремастеринг)
    Русское название в мировом прокате: Wall Street (Remastered)
    Создали в: 1987
    Категория жанра: Драма, криминал
    Снималось в: США, 20th Century Fox Film Corporation, Amercent Films, American Entertainment Partners L.P.
    Главный режиссер: Оливер Стоун
    Актеры: Майкл Дуглас, Чарли Шин, Дэрил Ханна, Мартин Шин, Хэл Холбрук, Теренс Стэмп, Сол Рубинек, Уильям Дж. Найт, Тамара Тюни, Франклин Ковер, Чак Пфайфер, Джон К. МакГинли, Джеймс Карен, Лесли Лайлс, Фэйт Гир, Фрэнк Адонис, Джон Каподиче, Сузен Муракоши, Дэни Клейн, Франсуа Джиродэй, Джош Мостел, Энн Тэлман, Лиза Зебро, Мартин Шерман, Моника ван Вурен, Дерек Кейр, Андреа Томпсон, Лорен Том, Джордж Блюменталь, Джордж Влахос, Лилиан Монтевечи, Майкл О’Донохью, Пири МакДональд, Томас Андерсон, Шон Янг, Сесилия Пек, Пол Гилфойл, Энни МакЭнро, Джек Пруэтт, Рональд Ямамото, Джеймс Спэйдер

    Сюжет фильма: Бад Фокс, молодой и предельно амбициозный брокер, живёт в сердце мира, где у всего есть своя цена, всё можно купить и продать. Он твердо намерен достичь вершин, стать лучшим. Стремясь получить поддержку, он добивается знакомства со старым хищником Гордоном Гекко, и тот открывает ему тайны мастерства. Быстрые деньги, роскошные женщины, все удовольствия мира в руках у Бада, а бурлящие вокруг финансовые потоки несут ещё больше денег, больше возможностей, больше искушений. Нужно только настичь эту добычу...

    Качество фильма: BDRip 720p
    Размер скачиваемого торрента: 11.91 ГБ
    Время просмотра: 02:05:43

    Информация о видео: MPEG-4 AVC, 6649 Кбит/с, 1280x692
    Информация о звуке 1: русский, 48 kHz, AC3, 2 ch, 192 kbps avg, Дублированный, Ленфильм
    Информация о звуке 2: русский, 48 kHz, AC3, 6 ch, 448 kbps avg, Профессиональный многоголосый, BD EUR
    Информация о звуке 3: русский, 48 kHz, AC3, 2 ch, 192 kbps avg, Профессиональный многоголосый, НТВ
    Информация о звуке 4: русский, 48 kHz, AC3, 2 ch, 192 kbps avg, Профессиональный многоголосый
    Информация о звуке 5: русский, 48 kHz, AC3, 2 ch, 192 kbps avg, Авторский, Леонид Володарский
    Информация о звуке 6: русский, 48 kHz, AC3, 2 ch, 192 kbps avg, Авторский, Юрий Живов
    Информация о звуке 7: русский, 48 kHz, AC3, 6 ch, 448 kbps avg, Авторский, Юрий Немахов
    Информация о звуке 8: русский, 48 kHz, AC3, 6 ch, 448 kbps avg, Авторский, Михаил Чадов

    Внешние файлы
    Информация о звуке: русский, 48 kHz, DTS, 6 ch, 768 kbps avg, Профессиональный многоголосый, BD EUR
    Информация о звуке: украинский, 48 kHz, AC3, 2 ch, 192 kbps avg, Профессиональный многоголосый
    Информация о звуке: русский, 48 kHz, DTS, 6 ch, 1509 kbps avg, Авторский, Юрий Немахов
    Информация о звуке: русский, 48 kHz, DTS, 6 ch, 1509 kbps avg, Авторский, Михаил Чадов
    Информация о звуке: английский, 48 kHz, AC3, 6 ch, 448 kbps avg, Оригинал
    Субтитры: русские
    Субтитры: английские

    Имеются неименованные главы/чаптеры.

    Исходник | Сравнение с исходником



    Награды
    Приз Национального совета обозревателей в США, Серебряная лента и Давид Донателло в Италии лучшему иностранному актёру — все за исполнение главной роли Майклом Дугласом.

    Оскар, 1988 год
    Победитель (1):
    Лучшая мужская роль (Майкл Дуглас)

    Золотой глобус, 1988 год
    Победитель (1):
    Лучшая мужская роль (драма) (Майкл Дуглас)

    Золотая малина, 1988 год
    Победитель (1):
    Худшая женская роль второго плана (Дэрил Ханна)
    MediaInfo Лог х264
    Общее
    Полное имя : E:VideoUoll.Strit.1987.x264.BDRip.720pUoll.Strit.1987.AVO.rus.М.Чадов.dts
    Формат : DTS
    Формат/Информация : Digital Theater Systems
    Размер файла : 1,33 Гбайт
    Продолжительность : 2 ч. 5 м.
    Режим общего битрейта : Постоянный
    Общий поток : 1509 Кбит/сек

    Аудио
    Формат : DTS
    Формат/Информация : Digital Theater Systems
    Режим : 16
    Параметр Endianness формата : Big
    Продолжительность : 2 ч. 5 м.
    Вид битрейта : Постоянный
    Битрейт : 1509 Кбит/сек
    Каналы : 6 каналов
    Расположение каналов : Front: L C R, Side: L R, LFE
    Частота : 48,0 КГц
    Битовая глубина : 24 бит
    Метод сжатия : С потерями
    Размер потока : 1,33 Гбайт

    Общее
    Полное имя : E:VideoUoll.Strit.1987.x264.BDRip.720pUoll.Strit.1987.AVO.rus.Ю.Немахов.dts
    Формат : DTS
    Формат/Информация : Digital Theater Systems
    Размер файла : 1,33 Гбайт
    Продолжительность : 2 ч. 5 м.
    Режим общего битрейта : Постоянный
    Общий поток : 1509 Кбит/сек

    Аудио
    Формат : DTS
    Формат/Информация : Digital Theater Systems
    Режим : 16
    Параметр Endianness формата : Big
    Продолжительность : 2 ч. 5 м.
    Вид битрейта : Постоянный
    Битрейт : 1509 Кбит/сек
    Каналы : 6 каналов
    Расположение каналов : Front: L C R, Side: L R, LFE
    Частота : 48,0 КГц
    Битовая глубина : 24 бит
    Метод сжатия : С потерями
    Размер потока : 1,33 Гбайт (100%)

    Общее
    Полное имя : E:VideoUoll.Strit.1987.x264.BDRip.720pUoll.Strit.1987.eng.srt
    Формат : SubRip
    Размер файла : 150 Кбайт

    Текст
    Формат : SubRip
    Метод сжатия : Без потерь

    Общее
    Полное имя : E:VideoUoll.Strit.1987.x264.BDRip.720pUoll.Strit.1987.MVO.rus.BD EUR.dts
    Формат : DTS
    Формат/Информация : Digital Theater Systems
    Размер файла : 691 Мбайт
    Продолжительность : 2 ч. 5 м.
    Режим общего битрейта : Постоянный
    Общий поток : 768 Кбит/сек

    Аудио
    Формат : DTS
    Формат/Информация : Digital Theater Systems
    Режим : 16
    Параметр Endianness формата : Big
    Продолжительность : 2 ч. 5 м.
    Вид битрейта : Постоянный
    Битрейт : 768 Кбит/сек
    Каналы : 6 каналов
    Расположение каналов : Front: L C R, Side: L R, LFE
    Частота : 48,0 КГц
    Битовая глубина : 24 бит
    Метод сжатия : С потерями
    Размер потока : 691 Мбайт (100%)

    Общее
    Полное имя : E:VideoUoll.Strit.1987.x264.BDRip.720pUoll.Strit.1987.MVO.ukr.ac3
    Формат : AC-3
    Формат/Информация : Audio Coding 3
    Размер файла : 173 Мбайт
    Продолжительность : 2 ч. 5 м.
    Режим общего битрейта : Постоянный
    Общий поток : 192 Кбит/сек

    Аудио
    Формат : AC-3
    Формат/Информация : Audio Coding 3
    Профиль формата : Dolby Digital
    Расширение режима : CM (complete main)
    Параметр Endianness формата : Big
    Продолжительность : 2 ч. 5 м.
    Вид битрейта : Постоянный
    Битрейт : 192 Кбит/сек
    Каналы : 2 канала
    Расположение каналов : Front: L R
    Частота : 48,0 КГц
    Битовая глубина : 16 бит
    Метод сжатия : С потерями
    Размер потока : 173 Мбайт (100%)

    Общее
    Полное имя : E:VideoUoll.Strit.1987.x264.BDRip.720pUoll.Strit.1987.Original.eng.ac3
    Формат : AC-3
    Формат/Информация : Audio Coding 3
    Размер файла : 403 Мбайт
    Продолжительность : 2 ч. 5 м.
    Режим общего битрейта : Постоянный
    Общий поток : 448 Кбит/сек

    Аудио
    Формат : AC-3
    Формат/Информация : Audio Coding 3
    Расширение режима : CM (complete main)
    Параметр Endianness формата : Big
    Продолжительность : 2 ч. 5 м.
    Вид битрейта : Постоянный
    Битрейт : 448 Кбит/сек
    Каналы : 6 каналов
    Расположение каналов : Front: L C R, Side: L R, LFE
    Частота : 48,0 КГц
    Битовая глубина : 16 бит
    Метод сжатия : С потерями
    Размер потока : 403 Мбайт (100%)

    Общее
    Полное имя : E:VideoUoll.Strit.1987.x264.BDRip.720pUoll.Strit.1987.rus.srt
    Размер файла : 137 Кбайт

    Общее
    Уникальный идентификатор : 241656662447979500990369868813970685834 (0xB5CD6157DCC7EC878EFED97B766FBF8A)
    Полное имя : E:VideoUoll.Strit.1987.x264.BDRip.720pUoll.Strit.1987.x264.BDRip.720p.mkv
    Формат : Matroska
    Версия формата : Version 4 / Version 2
    Размер файла : 8,02 Гбайт
    Продолжительность : 2 ч. 5 м.
    Общий поток : 9135 Кбит/сек
    Название фильма : Уолл-стрит (Ремастеринг) / Wall Street (Remastered) / 1987 / BDRip -- STarankov
    Дата кодирования : UTC 2013-12-29 14:18:17
    Программа кодирования : mkvmerge v6.6.0 (;The Edge Of The In Between;) built on Dec 1 2013 17:55:00
    Библиотека кодирования : libebml v1.3.0 libmatroska v1.4.1

    Видео
    Идентификатор : 1
    Формат : AVC
    Формат/Информация : Advanced Video Codec
    Профиль формата : High@L4.1
    Параметр CABAC формата : Да
    Параметр ReFrames формата : 9 кадров
    Идентификатор кодека : V_MPEG4/ISO/AVC
    Продолжительность : 2 ч. 5 м.
    Битрейт : 6649 Кбит/сек
    Ширина : 1280 пикселей
    Высота : 692 пикселя
    Соотношение сторон : 1,85:1
    Режим частоты кадров : Постоянный
    Частота кадров : 23,976 кадра/сек
    Цветовое пространство : YUV
    Субдискретизация насыщенности : 4:2:0
    Битовая глубина : 8 бит
    Тип развёртки : Прогрессивная
    Бит/(Пиксели*Кадры) : 0.313
    Размер потока : 5,84 Гбайт (73%)
    Библиотека кодирования : x264 core 138 r2358 9e941d1
    Залил: msltel
    Размер скачиваемого торрента: 11.91 GB (12787122424 Bytes)


    Уолл-стрит / Wall Street (1987 ) BDRip 720p by msltel | D, P, A | Ремастеринг скачать через торрент бесплатно
    загрузка...
    Рейтинг →
     (голосов: 1, оценка 3/5, голосовать можно 1 раз )

    Другие торренты по теме:

  • Волк с Уолл-стрит / The Wolf of Wall Street (2013) HD 1080p | L1 | Трейлер торрент скачать бесплатно
  • Уолл Стрит: Деньги не спят / Wall Street: Money Never Sleeps (2010) HDRip от Scarabey | D торрент скачать бесплатно
  • Уолл-стрит / Wall Street (1987) HDRip от Scarabey | D | REMASTERED торрент скачать бесплатно
  • Волк с Уолл-стрит торрент скачать бесплатно
  • Эпоха алчности / Нападение на Уолл-стрит / Assault on Wall Street (2013) BDRip 720p от leonardo 59 Scarabey | L1 торрент скачать бесплатно
  • Нападение на Уолл-стрит / Эпоха алчности / Assault on Wall Street (2013) HDRip торрент скачать бесплатно
  • Нападение на Уолл-стрит / Эпоха алчности / Assault on Wall Street (2013) HDRip от Smart-Tracker | КПК скачать через торрент бесплатно
  • Нападение на Уолл-стрит / Эпоха алчности / Bailout: The Age of Greed / Assault on Wall Street (2013) Blu-Ray 1080p | P торрент скачать бесплатно


    • Комментарии (0):

      Информация

      Информация

        Посетители, находящиеся в группе Гости, не могут оставлять комментарии в данной новости.

        ↓ Меню



        ↓ Опрос

        А Вы добавили сайт в закладки?
        Да
        Не


        Top 10 за неделю (Фильмы)