.
Авторизация | Регистрация
» » Суши гёл / Sushi Girl (2012) BDRemux 1080p от ExKinoRay | Лицензия, A скачать через торрент бесплатно




    Суши гёл / Sushi Girl (2012) BDRemux 1080p от ExKinoRay | Лицензия, A скачать через торрент бесплатно

    Опубликовал: Админ | Дата: 27-02-2015, 11:09 | Просмотров: 266



    Детально о кино

    Русское название: Суши гёл
    Русское название в мировом прокате: Sushi Girl
    Создали в: 2012
    Категория жанра: Триллер, криминал
    Снималось в: США, Assembly Line, Level Up Productions, Stray Angel Films, Sushi Girl Films
    Главный режиссер: Керн Сэкстон
    Актеры: Джеймс Дювал, Ноа Хэтэуэй, Энди МакКензи, Тони Тодд, Марк Хэмилл, Сонни Чиба, Давид Дастмалчян, Джефф Фэйи, Кортни Палм, Дэнни Трехо, Майкл Бин, Дестин Пфафф, Тед Страйкер, Сайрус Александр, Дэвид Рейнольдс, Нил Фишер, Шон Эппл, Рэйчелл Федерофф, Сурен Серон, Майк М. Куик


    Сюжет фильма: Налетчик по кличке Фиш провел шесть лет в тюрьме. Все эти шесть лет он молчал о совершенном грабеже и своих четырех подельниках. У ворот тюрьмы, после освобождения, его встречает машина и отвозит в место, где собираются все его бывшие друзья, участники громкого ограбления. На столе, в виде угощения, лежит молодая, обнаженная и красивая девушка с разнообразными видами суши на теле. Девушка кажется полностью безмолвной, обученной молчать и не реагировать на то, что происходит вокруг. Даже если будет опасно. Матерые преступники начинают выяснять меж собой, куда после ограбления пропали бриллианты на несколько миллионов долларов.






    Файл

    Качество фильма: Blu-Ray Remux (1080p)
    Информация о видео: MPEG-4 AVC, 24985 Кбит/с, 1920x1080, 23.976 кадр/с
    Информация о звуке: Русский (AC3, 6 ch, 448 Кбит/c), (DTS, 6 ch, 1510 Кбит/с), английский (DTS-HD MA, 8 ch, 2292 Кбит/c)
    Размер скачиваемого торрента: 20.21 ГБ
    Время просмотра: 01:38:59
    Перевод текста: Дублированный, авторский одноголосый (Ю.Немахов)
    Субтитры: Английские

    Сохранены оригинальные чаптеры как на Blu-Ray
    -------------------------------------------------------------------------------------------
    Огромное спасибо за перевод Юрия Немахова пользователям форума е180:
    zaq-qaz, zeleniy, Hattori Hanzo, carnivale, Guyver, Nadoelo, Slimka, Марлон, YoGuRt-82, Larry, shurik36, luka69, Savely, 2vova2, Hellraiser84, semargl.


    Инфо-файл

    Общее
    Уникальный идентификатор : 234584834764611185432815822168831988579 (0xB07B6551A811DCAE8B3D3E992A7E9363)
    Полное имя : C:ЗагрузкиSushi.Girl.2012.BDRemux.(1080p).ExKinoRay.mkv
    Формат : Matroska
    Версия формата : Version 2
    Размер файла : 20,2 Гбайт
    Продолжительность : 1 ч. 38 м.
    Режим общего битрейта : Переменный
    Общий поток : 29,2 Мбит/сек
    Название фильма : Суши гёл.2012. Сборка: ollan
    Дата кодирования : UTC 2013-12-28 21:36:21
    Программа кодирования : mkvmerge v5.6.0 (;Kenya Kane;) built on May 27 2012 16:44:04
    Библиотека кодирования : libebml v1.2.3 libmatroska v1.3.0

    Видео
    Идентификатор : 1
    Формат : AVC
    Формат/Информация : Advanced Video Codec
    Профиль формата : High@L4.1
    Параметр CABAC формата : Да
    Параметр ReFrames формата : 4 кадра
    Идентификатор кодека : V_MPEG4/ISO/AVC
    Продолжительность : 1 ч. 38 м.
    Вид битрейта : Переменный
    Максимальный битрейт : 35,0 Мбит/сек
    Ширина : 1920 пикселей
    Высота : 1080 пикселей
    Соотношение сторон : 16:9
    Режим частоты кадров : Постоянный
    Частота кадров : 23,976 кадра/сек
    Стандарт вещания : NTSC
    Цветовое пространство : YUV
    Субдискретизация насыщенности : 4:2:0
    Битовая глубина : 8 бит
    Тип развёртки : Прогрессивная
    Default : Да
    Forced : Нет
    Основные цвета : BT.709
    Характеристики трансфера : BT.709
    Коэффициенты матрицы : BT.709

    Аудио #1
    Идентификатор : 2
    Формат : AC-3
    Формат/Информация : Audio Coding 3
    Расширение режима : CM (complete main)
    Параметр Endianness формата : Big
    Идентификатор кодека : A_AC3
    Продолжительность : 1 ч. 38 м.
    Вид битрейта : Постоянный
    Битрейт : 448 Кбит/сек
    Каналы : 6 каналов
    Расположение каналов : Front: L C R, Side: L R, LFE
    Частота : 48,0 КГц
    Битовая глубина : 16 бит
    Метод сжатия : С потерями
    Размер потока : 317 Мбайт (2%)
    Заголовок : Дублированный (DVD R5)
    Язык : Russian
    Default : Да
    Forced : Да

    Аудио #2
    Идентификатор : 3
    Формат : DTS
    Формат/Информация : Digital Theater Systems
    Режим : 16
    Параметр Endianness формата : Big
    Идентификатор кодека : A_DTS
    Продолжительность : 1 ч. 38 м.
    Вид битрейта : Постоянный
    Битрейт : 1510 Кбит/сек
    Каналы : 6 каналов
    Расположение каналов : Front: L C R, Side: L R, LFE
    Частота : 48,0 КГц
    Битовая глубина : 16 бит
    Метод сжатия : С потерями
    Размер потока : 1,04 Гбайт (5%)
    Заголовок : Авторский одноголосый (Немахов)
    Язык : Russian
    Default : Нет
    Forced : Нет

    Аудио #3
    Идентификатор : 4
    Формат : DTS
    Формат/Информация : Digital Theater Systems
    Профиль формата : MA / Core
    Режим : 16
    Параметр Endianness формата : Big
    Идентификатор кодека : A_DTS
    Продолжительность : 1 ч. 38 м.
    Вид битрейта : Переменный
    Битрейт : Неизвестно / 1509 Кбит/сек
    Каналы : 8 каналов / 6 каналов
    Расположение каналов : Front: L C R, Side: L R, Back: L R, LFE / Front: L C R, Side: L R, LFE
    Частота : 48,0 КГц
    Битовая глубина : 16 бит
    Метод сжатия : Без потерь / Lossy
    Язык : English
    Default : Нет
    Forced : Нет

    Текст
    Идентификатор : 5
    Формат : UTF-8
    Идентификатор кодека : S_TEXT/UTF8
    Идентификатор кодека/Информация : UTF-8 Plain Text
    Язык : English
    Default : Нет
    Forced : Нет

    Меню
    00:00:00.000 : :Chapter 01
    00:05:53.185 : :Chapter 02
    00:13:13.167 : :Chapter 03
    00:26:23.747 : :Chapter 04
    00:32:50.051 : :Chapter 05
    00:41:18.850 : :Chapter 06
    00:49:26.505 : :Chapter 07
    00:56:04.486 : :Chapter 08
    01:03:03.237 : :Chapter 09
    01:10:23.593 : :Chapter 10
    01:21:53.073 : :Chapter 11
    01:32:07.188 : :Chapter 12



    Скриншоты для ознакомления







    Релиз подготовил: Сборка:
    Залил: ollan
    Размер скачиваемого торрента: 20.21 GB (21700072042 Bytes)

    Суши гёл / Sushi Girl (2012) BDRemux 1080p от ExKinoRay | Лицензия, A скачать через торрент бесплатно
    загрузка...
    Рейтинг →
     (голосов: 1, оценка 3/5, голосовать можно 1 раз )

    Другие торренты по теме:

  • Суши гёл / Sushi Girl (2012) HDRip | Лицензия торрент скачать бесплатно
  • Суши гёл / Sushi Girl (2012) BDRip 720p | D, A скачать через торрент бесплатно
  • Суши гёл / Sushi Girl (2012) BDRip-AVC от HELLYWOOD | D скачать через торрент бесплатно
  • Суши гёл / Sushi Girl (2012) BDRip-AVC от Leonardo and Scarabey | D скачать через торрент бесплатно


    • Комментарии (0):

      Информация

      Информация

        Посетители, находящиеся в группе Гости, не могут оставлять комментарии в данной новости.

        ↓ Меню



        ↓ Опрос

        А Вы добавили сайт в закладки?
        Да
        Не


        Top 10 за неделю (Фильмы)